<?xml version="1.0" standalone="no"?>
<!DOCTYPE svg PUBLIC "-//W3C//DTD SVG 1.1//EN" "http://www.w3.org/Graphics/SVG/1.1/DTD/svg11.dtd" >
<svg xmlns="http://www.w3.org/2000/svg" xmlns:xlink="http://www.w3.org/1999/xlink" version="1.1">
<metadata>
Created by FontForge 20190801 at Mon Apr 17 15:53:55 2023
 By root
Copyright (C) 2020-2023 Monotype Imaging Inc. All rights reserved.
</metadata>
<defs>
<font id="MaisonNeueExt-Bold" horiz-adv-x="720" >
  <font-face 
    font-family="Maison Neue Ext"
    font-weight="700"
    font-stretch="expanded"
    units-per-em="1000"
    panose-1="2 11 8 5 4 0 0 0 0 0"
    ascent="755"
    descent="-245"
    x-height="530"
    cap-height="700"
    bbox="-766 -305 2470 1060"
    underline-thickness="100"
    underline-position="-120"
    stemh="133"
    stemv="148"
    unicode-range="U+000D-FEFF"
  />
<missing-glyph horiz-adv-x="616" 
d="M80 0v700h456v-700h-456zM148 64h319v572h-319v-572z" />
    <glyph glyph-name="W_W_W" unicode="WWW" horiz-adv-x="2480" 
d="M344 0h-158l-176 700h157l118 -484h2l170 484h135l170 -484h2l170 484h135l170 -484h2l170 484h135l170 -484h2l170 484h135l170 -484h2l119 484h156l-176 -700h-160l-178 482h-2l-179 -482h-118l-178 482h-2l-179 -482h-118l-178 482h-2l-179 -482h-118l-178 482h-2z
" />
    <glyph glyph-name="fi" unicode="fi" horiz-adv-x="685" 
d="M490 761h145v-139h-145v139zM260 530h378v-530h-143v404h-235v-404h-148v404h-107v126h107v54c0 93 65 150 174 150h129v-127h-111c-29 0 -44 -14 -44 -41v-36z" />
    <glyph glyph-name="fl" unicode="fl" horiz-adv-x="692" 
d="M495 530v200h148v-730h-148v404h-235v-404h-148v404h-107v126h107v54c0 93 65 150 174 150h129v-127h-111c-29 0 -44 -14 -44 -41v-36h235z" />
    <glyph glyph-name="w_w_w" unicode="www" horiz-adv-x="2224" 
d="M314 0h-149l-150 530h150l94 -350h2l145 350h133l146 -350h2l145 350h133l146 -350h2l146 350h133l145 -350h2l146 350h133l146 -350h2l93 350h151l-151 -530h-149l-158 376h-2l-158 -376h-108l-158 376h-2l-158 -376h-108l-158 376h-2l-158 -376h-108l-159 376h-2z" />
    <glyph glyph-name=".notdef" horiz-adv-x="616" 
d="M80 0v700h456v-700h-456zM148 64h319v572h-319v-572z" />
    <glyph glyph-name=".null" horiz-adv-x="0" 
 />
    <glyph glyph-name="CR" unicode="&#xd;" horiz-adv-x="0" 
 />
    <glyph glyph-name="space" unicode=" " horiz-adv-x="255" 
 />
    <glyph glyph-name="A" unicode="A" horiz-adv-x="763" 
d="M769 0h-166l-46 108h-351l-46 -108h-165l315 700h143zM381 521l-118 -279h238l-118 279h-2z" />
    <glyph glyph-name="Aacute" unicode="&#xc1;" horiz-adv-x="763" 
d="M406 898h153l-136 -138h-118zM769 0h-166l-46 108h-351l-46 -108h-165l315 700h143zM381 521l-118 -279h238l-118 279h-2z" />
    <glyph glyph-name="Abreve" unicode="&#x102;" horiz-adv-x="763" 
d="M382 750c-92 0 -156 53 -165 139h77c10 -31 43 -50 88 -50s78 19 87 50h78c-10 -86 -72 -139 -165 -139zM769 0h-166l-46 108h-351l-46 -108h-165l315 700h143zM381 521l-118 -279h238l-118 279h-2z" />
    <glyph glyph-name="uni1EAE" unicode="&#x1eae;" horiz-adv-x="763" 
d="M403 1057h153l-136 -138h-118zM379 750c-92 0 -156 53 -165 139h77c10 -31 43 -50 88 -50s78 19 87 50h78c-10 -86 -72 -139 -165 -139zM769 0h-166l-46 108h-351l-46 -108h-165l315 700h143zM381 521l-118 -279h238l-118 279h-2z" />
    <glyph glyph-name="uni1EB6" unicode="&#x1eb6;" horiz-adv-x="763" 
d="M382 750c-92 0 -156 53 -165 139h77c10 -31 43 -50 88 -50s78 19 87 50h78c-10 -86 -72 -139 -165 -139zM453 700l316 -700h-166l-46 108h-351l-46 -108h-165l315 700h143zM381 521l-118 -279h238l-118 279h-2zM446 -177h-129v127h129v-127z" />
    <glyph glyph-name="uni1EB0" unicode="&#x1eb0;" horiz-adv-x="763" 
d="M356 1057l101 -138h-117l-137 138h153zM381 839c45 0 78 19 87 50h78c-10 -86 -72 -139 -165 -139c-92 0 -156 53 -165 139h77c10 -31 43 -50 88 -50zM769 0h-166l-46 108h-351l-46 -108h-165l315 700h143zM381 521l-118 -279h238l-118 279h-2z" />
    <glyph glyph-name="uni1EB2" unicode="&#x1eb2;" horiz-adv-x="763" 
d="M369 991c-23 0 -43 -8 -76 -23l-26 62c41 17 74 25 111 25c59 0 108 -31 108 -76c0 -35 -26 -60 -74 -72v-18h-77v52c44 5 73 11 73 28c0 14 -15 22 -39 22zM381 750c-92 0 -156 53 -165 139h77c10 -31 43 -50 88 -50s78 19 87 50h78c-10 -86 -72 -139 -165 -139zM769 0
h-166l-46 108h-351l-46 -108h-165l315 700h143zM381 521l-118 -279h238l-118 279h-2z" />
    <glyph glyph-name="uni1EB4" unicode="&#x1eb4;" horiz-adv-x="763" 
d="M316 951c-20 0 -33 -11 -37 -34h-63c4 71 41 111 98 111s95 -36 132 -36c19 0 32 10 36 31h64c-4 -71 -42 -110 -98 -110s-96 38 -132 38zM381 750c-92 0 -156 53 -165 139h77c10 -31 43 -50 88 -50s78 19 87 50h78c-10 -86 -72 -139 -165 -139zM769 0h-166l-46 108h-351
l-46 -108h-165l315 700h143zM381 521l-118 -279h238l-118 279h-2z" />
    <glyph glyph-name="uni01CD" unicode="&#x1cd;" horiz-adv-x="763" 
d="M543 829l-88 -79h-148l-88 79l64 66l98 -93l97 93zM769 0h-166l-46 108h-351l-46 -108h-165l315 700h143zM381 521l-118 -279h238l-118 279h-2z" />
    <glyph glyph-name="Acircumflex" unicode="&#xc2;" horiz-adv-x="763" 
d="M478 740l-97 93l-98 -93l-64 66l88 79h148l88 -79zM769 0h-166l-46 108h-351l-46 -108h-165l315 700h143zM381 521l-118 -279h238l-118 279h-2z" />
    <glyph glyph-name="uni1EA4" unicode="&#x1ea4;" horiz-adv-x="763" 
d="M608 978h138l-122 -125h-107zM478 740l-97 93l-98 -93l-64 66l88 79h148l88 -79zM769 0h-166l-46 108h-351l-46 -108h-165l315 700h143zM381 521l-118 -279h238l-118 279h-2z" />
    <glyph glyph-name="uni1EAC" unicode="&#x1eac;" horiz-adv-x="763" 
d="M478 740l-97 93l-98 -93l-64 66l88 79h148l88 -79zM453 700l316 -700h-166l-46 108h-351l-46 -108h-165l315 700h143zM381 521l-118 -279h238l-118 279h-2zM446 -177h-129v127h129v-127z" />
    <glyph glyph-name="uni1EA6" unicode="&#x1ea6;" horiz-adv-x="763" 
d="M564 978l91 -125h-105l-123 125h137zM478 740l-97 93l-98 -93l-64 66l88 79h148l88 -79zM769 0h-166l-46 108h-351l-46 -108h-165l315 700h143zM381 521l-118 -279h238l-118 279h-2z" />
    <glyph glyph-name="uni1EA8" unicode="&#x1ea8;" horiz-adv-x="763" 
d="M559 946c-23 0 -43 -8 -76 -23l-26 62c41 17 74 25 111 25c59 0 108 -31 108 -76c0 -35 -25 -61 -74 -73v-17h-77v51c44 6 73 12 73 29c0 14 -14 22 -39 22zM478 740l-97 93l-98 -93l-64 66l88 79h148l88 -79zM769 0h-166l-46 108h-351l-46 -108h-165l315 700h143z
M381 521l-118 -279h238l-118 279h-2z" />
    <glyph glyph-name="uni1EAA" unicode="&#x1eaa;" horiz-adv-x="763" 
d="M318 951c-20 0 -32 -11 -37 -34h-62c4 71 41 111 97 111s94 -36 130 -36c20 0 32 10 36 31h63c-4 -71 -42 -110 -97 -110s-94 38 -130 38zM221 806l88 79h147l88 -79l-64 -66l-97 93l-98 -93zM769 0h-166l-46 108h-351l-46 -108h-165l315 700h143zM381 521l-118 -279h238
l-118 279h-2z" />
    <glyph glyph-name="Adieresis" unicode="&#xc4;" horiz-adv-x="763" 
d="M208 878h130v-128h-130v128zM425 878h130v-128h-130v128zM769 0h-166l-46 108h-351l-46 -108h-165l315 700h143zM381 521l-118 -279h238l-118 279h-2z" />
    <glyph glyph-name="uni01DE" unicode="&#x1de;" horiz-adv-x="763" 
d="M207 1004h349v-86h-349v86zM338 878v-128h-130v128h130zM555 878v-128h-130v128h130zM769 0h-166l-46 108h-351l-46 -108h-165l315 700h143zM381 521l-118 -279h238l-118 279h-2z" />
    <glyph glyph-name="uni1EA0" unicode="&#x1ea0;" horiz-adv-x="763" 
d="M453 700l316 -700h-166l-46 108h-351l-46 -108h-165l315 700h143zM381 521l-118 -279h238l-118 279h-2zM446 -177h-129v127h129v-127z" />
    <glyph glyph-name="Agrave" unicode="&#xc0;" horiz-adv-x="763" 
d="M357 898l101 -138h-117l-137 138h153zM769 0h-166l-46 108h-351l-46 -108h-165l315 700h143zM381 521l-118 -279h238l-118 279h-2z" />
    <glyph glyph-name="uni1EA2" unicode="&#x1ea2;" horiz-adv-x="763" 
d="M376 863c-25 0 -48 -9 -85 -25l-28 69c45 19 82 28 123 28c66 0 120 -35 120 -85c0 -38 -28 -67 -82 -80v-20h-86v57h1c49 6 81 13 81 32c0 15 -17 24 -44 24zM769 0h-166l-46 108h-351l-46 -108h-165l315 700h143zM381 521l-118 -279h238l-118 279h-2z" />
    <glyph glyph-name="Amacron" unicode="&#x100;" horiz-adv-x="763" 
d="M207 846h349v-86h-349v86zM769 0h-166l-46 108h-351l-46 -108h-165l315 700h143zM381 521l-118 -279h238l-118 279h-2z" />
    <glyph glyph-name="Aogonek" unicode="&#x104;" horiz-adv-x="763" 
d="M741 -103l37 -81c-35 -19 -69 -28 -108 -28c-66 0 -107 32 -107 89c0 46 27 86 83 123h-43l-46 108h-351l-46 -108h-165l315 700h143l316 -700h-38c-45 -29 -73 -63 -73 -93c0 -19 10 -28 29 -28c16 0 35 6 54 18zM381 521l-118 -279h238l-118 279h-2z" />
    <glyph glyph-name="Aring" unicode="&#xc5;" horiz-adv-x="763" 
d="M769 0h-166l-46 108h-351l-46 -108h-165l296 659c-37 23 -60 62 -60 109c0 77 64 134 150 134c87 0 151 -57 151 -134c0 -47 -23 -86 -60 -109zM381 836c-40 0 -68 -28 -68 -68s28 -68 68 -68c41 0 69 28 69 68s-28 68 -69 68zM381 521l-118 -279h238l-118 279h-2z" />
    <glyph glyph-name="Aringacute" unicode="&#x1fa;" horiz-adv-x="763" 
d="M769 0h-166l-46 108h-351l-46 -108h-165l296 659c-37 23 -60 62 -60 109c0 60 38 107 95 126l77 104h138l-104 -105c57 -18 95 -66 95 -125c0 -47 -23 -86 -60 -109zM381 700c41 0 69 28 69 68s-28 68 -69 68c-40 0 -68 -28 -68 -68s28 -68 68 -68zM381 521l-118 -279
h238l-118 279h-2z" />
    <glyph glyph-name="Atilde" unicode="&#xc3;" horiz-adv-x="763" 
d="M306 795c-23 0 -38 -11 -43 -35h-74c5 74 48 117 115 117s112 -39 155 -39c23 0 38 11 43 34h74c-4 -75 -49 -117 -115 -117s-112 40 -155 40zM769 0h-166l-46 108h-351l-46 -108h-165l315 700h143zM381 521l-118 -279h238l-118 279h-2z" />
    <glyph glyph-name="AE" unicode="&#xc6;" horiz-adv-x="1008" 
d="M968 700v-128h-305v-156h270v-121h-270v-167h305v-128h-450v114h-303l-53 -114h-167l338 700h635zM430 572l-156 -333h244v333h-88z" />
    <glyph glyph-name="AEacute" unicode="&#x1fc;" horiz-adv-x="1008" 
d="M534 898h153l-136 -138h-118zM968 700v-128h-305v-156h270v-121h-270v-167h305v-128h-450v114h-303l-53 -114h-167l338 700h635zM430 572l-156 -333h244v333h-88z" />
    <glyph glyph-name="B" unicode="B" horiz-adv-x="721" 
d="M425 0h-356v700h387c122 0 209 -79 209 -188c0 -58 -27 -105 -72 -131v-2c61 -28 98 -87 98 -161c0 -146 -87 -218 -266 -218zM222 566v-146h209c53 0 81 26 81 73s-28 73 -81 73h-209zM222 301v-167h225c63 0 91 28 91 85c0 52 -31 82 -90 82h-226z" />
    <glyph glyph-name="uni1E04" unicode="&#x1e04;" horiz-adv-x="721" 
d="M425 0h-356v700h387c122 0 209 -79 209 -188c0 -58 -27 -105 -72 -131v-2c61 -28 98 -87 98 -161c0 -146 -87 -218 -266 -218zM222 566v-146h209c53 0 81 26 81 73s-28 73 -81 73h-209zM222 301v-167h225c63 0 91 28 91 85c0 52 -31 82 -90 82h-226zM430 -177h-129v127
h129v-127z" />
    <glyph glyph-name="C" unicode="C" horiz-adv-x="755" 
d="M397 -15c-214 0 -368 152 -368 365s154 365 368 365c169 0 297 -93 331 -243l-144 -36c-25 92 -93 145 -187 145c-128 0 -215 -94 -215 -231s87 -231 215 -231c98 0 170 57 189 158l145 -34c-29 -161 -160 -258 -334 -258z" />
    <glyph glyph-name="Cacute" unicode="&#x106;" horiz-adv-x="755" 
d="M439 775h-118l101 138h153zM397 -15c-214 0 -368 152 -368 365s154 365 368 365c169 0 297 -93 331 -243l-144 -36c-25 92 -93 145 -187 145c-128 0 -215 -94 -215 -231s87 -231 215 -231c98 0 170 57 189 158l145 -34c-29 -161 -160 -258 -334 -258z" />
    <glyph glyph-name="Ccaron" unicode="&#x10c;" horiz-adv-x="755" 
d="M559 844l-88 -79h-148l-88 79l64 66l98 -93l97 93zM586 277l145 -34c-29 -161 -160 -258 -334 -258c-214 0 -368 152 -368 365s154 365 368 365c169 0 297 -93 331 -243l-144 -36c-25 92 -93 145 -187 145c-128 0 -215 -94 -215 -231s87 -231 215 -231
c98 0 170 57 189 158z" />
    <glyph glyph-name="Ccedilla" unicode="&#xc7;" horiz-adv-x="755" 
d="M586 277l145 -34c-28 -153 -148 -248 -309 -257l-29 -43c10 3 21 4 32 4c67 0 114 -37 114 -95c0 -67 -52 -111 -132 -111c-43 0 -88 15 -124 40l47 67c25 -18 47 -27 71 -27c30 0 48 14 48 36c0 18 -19 30 -46 30c-20 0 -38 -6 -55 -19l-59 25l58 95
c-188 22 -318 166 -318 362c0 213 154 365 368 365c169 0 297 -93 331 -243l-144 -36c-25 92 -93 145 -187 145c-128 0 -215 -94 -215 -231s87 -231 215 -231c98 0 170 57 189 158z" />
    <glyph glyph-name="Ccircumflex" unicode="&#x108;" horiz-adv-x="755" 
d="M494 755l-97 93l-98 -93l-64 66l88 79h148l88 -79zM586 277l145 -34c-29 -161 -160 -258 -334 -258c-214 0 -368 152 -368 365s154 365 368 365c169 0 297 -93 331 -243l-144 -36c-25 92 -93 145 -187 145c-128 0 -215 -94 -215 -231s87 -231 215 -231
c98 0 170 57 189 158z" />
    <glyph glyph-name="Cdotaccent" unicode="&#x10a;" horiz-adv-x="755" 
d="M461 775h-129v127h129v-127zM397 -15c-214 0 -368 152 -368 365s154 365 368 365c169 0 297 -93 331 -243l-144 -36c-25 92 -93 145 -187 145c-128 0 -215 -94 -215 -231s87 -231 215 -231c98 0 170 57 189 158l145 -34c-29 -161 -160 -258 -334 -258z" />
    <glyph glyph-name="D" unicode="D" horiz-adv-x="739" 
d="M354 0h-285v700h287c212 0 354 -118 354 -350c0 -240 -144 -350 -356 -350zM222 566v-432h129c132 0 206 59 206 216c0 149 -72 216 -206 216h-129z" />
    <glyph glyph-name="Eth" unicode="&#xd0;" horiz-adv-x="739" 
d="M69 700h287c212 0 354 -118 354 -350c0 -240 -144 -350 -356 -350h-285v288h-96v122h96v290zM222 134h129c132 0 206 59 206 216c0 149 -72 216 -206 216h-129v-156h181v-122h-181v-154z" />
    <glyph glyph-name="Dcaron" unicode="&#x10e;" horiz-adv-x="739" 
d="M503 829l-88 -79h-148l-88 79l64 66l98 -93l97 93zM69 700h287c212 0 354 -118 354 -350c0 -240 -144 -350 -356 -350h-285v700zM222 134h129c132 0 206 59 206 216c0 149 -72 216 -206 216h-129v-432z" />
    <glyph glyph-name="Dcroat" unicode="&#x110;" horiz-adv-x="739" 
d="M69 700h287c212 0 354 -118 354 -350c0 -240 -144 -350 -356 -350h-285v288h-96v122h96v290zM222 134h129c132 0 206 59 206 216c0 149 -72 216 -206 216h-129v-156h181v-122h-181v-154z" />
    <glyph glyph-name="uni1E0C" unicode="&#x1e0c;" horiz-adv-x="739" 
d="M354 0h-285v700h287c212 0 354 -118 354 -350c0 -240 -144 -350 -356 -350zM222 566v-432h129c132 0 206 59 206 216c0 149 -72 216 -206 216h-129zM433 -177h-129v127h129v-127z" />
    <glyph glyph-name="E" unicode="E" horiz-adv-x="637" 
d="M597 0h-528v700h529v-134h-376v-147h340v-127h-340v-158h375v-134z" />
    <glyph glyph-name="Eacute" unicode="&#xc9;" horiz-adv-x="637" 
d="M377 760h-118l101 138h153zM597 0h-528v700h529v-134h-376v-147h340v-127h-340v-158h375v-134z" />
    <glyph glyph-name="Ebreve" unicode="&#x114;" horiz-adv-x="637" 
d="M336 750c-92 0 -156 53 -165 139h77c10 -31 43 -50 88 -50s78 19 87 50h78c-10 -86 -72 -139 -165 -139zM597 0h-528v700h529v-134h-376v-147h340v-127h-340v-158h375v-134z" />
    <glyph glyph-name="Ecaron" unicode="&#x11a;" horiz-adv-x="637" 
d="M497 829l-88 -79h-148l-88 79l64 66l98 -93l97 93zM598 700v-134h-376v-147h340v-127h-340v-158h375v-134h-528v700h529z" />
    <glyph glyph-name="uni0228" unicode="&#x228;" horiz-adv-x="637" 
d="M598 700v-134h-376v-147h340v-127h-340v-158h375v-134h-238l-29 -42c10 3 21 4 32 4c67 0 114 -37 114 -95c0 -67 -52 -111 -132 -111c-43 0 -88 15 -124 40l47 67c25 -18 47 -27 71 -27c30 0 48 14 48 36c0 18 -19 30 -46 30c-20 0 -38 -6 -55 -19l-59 25l56 92h-213
v700h529z" />
    <glyph glyph-name="Ecircumflex" unicode="&#xca;" horiz-adv-x="637" 
d="M432 740l-97 93l-98 -93l-64 66l88 79h148l88 -79zM598 700v-134h-376v-147h340v-127h-340v-158h375v-134h-528v700h529z" />
    <glyph glyph-name="uni1EBE" unicode="&#x1ebe;" horiz-adv-x="637" 
d="M562 978h138l-122 -125h-107zM432 740l-97 93l-98 -93l-64 66l88 79h148l88 -79zM597 0h-528v700h529v-134h-376v-147h340v-127h-340v-158h375v-134z" />
    <glyph glyph-name="uni1EC6" unicode="&#x1ec6;" horiz-adv-x="637" 
d="M432 740l-97 93l-98 -93l-64 66l88 79h148l88 -79zM598 700v-134h-376v-147h340v-127h-340v-158h375v-134h-528v700h529zM398 -177h-129v127h129v-127z" />
    <glyph glyph-name="uni1EC0" unicode="&#x1ec0;" horiz-adv-x="637" 
d="M518 978l91 -125h-105l-123 125h137zM432 740l-97 93l-98 -93l-64 66l88 79h148l88 -79zM597 0h-528v700h529v-134h-376v-147h340v-127h-340v-158h375v-134z" />
    <glyph glyph-name="uni1EC2" unicode="&#x1ec2;" horiz-adv-x="637" 
d="M522 1010c59 0 108 -31 108 -76c0 -35 -25 -61 -74 -73v-17h-77v51c44 6 73 12 73 29c0 14 -14 22 -39 22c-23 0 -43 -8 -76 -23l-26 62c41 17 74 25 111 25zM432 740l-97 93l-98 -93l-64 66l88 79h148l88 -79zM597 0h-528v700h529v-134h-376v-147h340v-127h-340v-158
h375v-134z" />
    <glyph glyph-name="uni1EC4" unicode="&#x1ec4;" horiz-adv-x="637" 
d="M272 951c-20 0 -32 -11 -37 -34h-62c4 71 41 111 97 111s94 -36 130 -36c20 0 32 10 36 31h63c-4 -71 -42 -110 -97 -110s-94 38 -130 38zM175 806l88 79h147l88 -79l-64 -66l-97 93l-98 -93zM598 700v-134h-376v-147h340v-127h-340v-158h375v-134h-528v700h529z" />
    <glyph glyph-name="Edieresis" unicode="&#xcb;" horiz-adv-x="637" 
d="M292 750h-130v128h130v-128zM509 750h-130v128h130v-128zM597 0h-528v700h529v-134h-376v-147h340v-127h-340v-158h375v-134z" />
    <glyph glyph-name="Edotaccent" unicode="&#x116;" horiz-adv-x="637" 
d="M400 760h-129v127h129v-127zM597 0h-528v700h529v-134h-376v-147h340v-127h-340v-158h375v-134z" />
    <glyph glyph-name="uni1EB8" unicode="&#x1eb8;" horiz-adv-x="637" 
d="M597 0h-528v700h529v-134h-376v-147h340v-127h-340v-158h375v-134zM398 -177h-129v127h129v-127z" />
    <glyph glyph-name="Egrave" unicode="&#xc8;" horiz-adv-x="637" 
d="M413 760h-117l-137 138h153zM597 0h-528v700h529v-134h-376v-147h340v-127h-340v-158h375v-134z" />
    <glyph glyph-name="uni1EBA" unicode="&#x1eba;" horiz-adv-x="637" 
d="M330 863c-25 0 -48 -9 -85 -25l-28 69c45 19 82 28 123 28c66 0 120 -35 120 -85c0 -38 -28 -67 -82 -80v-20h-86v57h1c49 6 81 13 81 32c0 15 -17 24 -44 24zM598 700v-134h-376v-147h340v-127h-340v-158h375v-134h-528v700h529z" />
    <glyph glyph-name="Emacron" unicode="&#x112;" horiz-adv-x="637" 
d="M510 760h-349v86h349v-86zM597 0h-528v700h529v-134h-376v-147h340v-127h-340v-158h375v-134z" />
    <glyph glyph-name="Eogonek" unicode="&#x118;" horiz-adv-x="637" 
d="M598 700v-134h-376v-147h340v-127h-340v-158h375v-134h-46c-45 -29 -73 -63 -73 -93c0 -19 10 -28 29 -28c16 0 35 6 54 18l37 -81c-35 -19 -69 -28 -108 -28c-66 0 -107 32 -107 89c0 46 27 86 83 123h-397v700h529z" />
    <glyph glyph-name="uni018E" unicode="&#x18e;" horiz-adv-x="638" 
d="M568 700v-700h-527v134h374v158h-340v127h340v147h-375v134h528z" />
    <glyph glyph-name="uni1EBC" unicode="&#x1ebc;" horiz-adv-x="637" 
d="M415 755c-66 0 -112 40 -155 40c-23 0 -38 -11 -43 -35h-74c5 74 48 117 115 117s112 -39 155 -39c23 0 38 11 43 34h74c-4 -75 -49 -117 -115 -117zM597 0h-528v700h529v-134h-376v-147h340v-127h-340v-158h375v-134z" />
    <glyph glyph-name="F" unicode="F" horiz-adv-x="637" 
d="M222 0h-153v700h535v-134h-382v-177h361v-131h-361v-258z" />
    <glyph glyph-name="G" unicode="G" horiz-adv-x="749" 
d="M391 -15c-211 0 -362 152 -362 365s151 365 362 365c166 0 288 -93 321 -233l-143 -37c-24 83 -87 136 -178 136c-125 0 -209 -93 -209 -231s84 -231 209 -231c107 0 176 51 180 134h-169v119h318v-86c0 -188 -125 -301 -329 -301z" />
    <glyph glyph-name="Gbreve" unicode="&#x11e;" horiz-adv-x="749" 
d="M392 765c-92 0 -156 53 -165 139h77c10 -31 43 -50 88 -50s78 19 87 50h78c-10 -86 -72 -139 -165 -139zM391 -15c-211 0 -362 152 -362 365s151 365 362 365c166 0 288 -93 321 -233l-143 -37c-24 83 -87 136 -178 136c-125 0 -209 -93 -209 -231s84 -231 209 -231
c107 0 176 51 180 134h-169v119h318v-86c0 -188 -125 -301 -329 -301z" />
    <glyph glyph-name="Gcircumflex" unicode="&#x11c;" horiz-adv-x="749" 
d="M487 755l-97 93l-98 -93l-64 66l88 79h148l88 -79zM402 253v119h318v-86c0 -188 -125 -301 -329 -301c-211 0 -362 152 -362 365s151 365 362 365c166 0 288 -93 321 -233l-143 -37c-24 83 -87 136 -178 136c-125 0 -209 -93 -209 -231s84 -231 209 -231
c107 0 176 51 180 134h-169z" />
    <glyph glyph-name="uni0122" unicode="&#x122;" horiz-adv-x="749" 
d="M391 -15c-211 0 -362 152 -362 365s151 365 362 365c166 0 288 -93 321 -233l-143 -37c-24 83 -87 136 -178 136c-125 0 -209 -93 -209 -231s84 -231 209 -231c107 0 176 51 180 134h-169v119h318v-86c0 -188 -125 -301 -329 -301zM330 -304v60c33 9 42 24 42 59h-47v120
h132v-106c0 -79 -43 -124 -127 -133z" />
    <glyph glyph-name="Gdotaccent" unicode="&#x120;" horiz-adv-x="749" 
d="M455 775h-129v127h129v-127zM391 -15c-211 0 -362 152 -362 365s151 365 362 365c166 0 288 -93 321 -233l-143 -37c-24 83 -87 136 -178 136c-125 0 -209 -93 -209 -231s84 -231 209 -231c107 0 176 51 180 134h-169v119h318v-86c0 -188 -125 -301 -329 -301z" />
    <glyph glyph-name="H" unicode="H" horiz-adv-x="765" 
d="M222 0h-153v700h153v-274h320v274h153v-700h-153v287h-320v-287z" />
    <glyph glyph-name="Hbar" unicode="&#x126;" horiz-adv-x="766" 
d="M696 612h70v-114h-70v-498h-151v292h-324v-292h-151v498h-70v114h70v88h151v-88h324v88h151v-88zM221 420h324v78h-324v-78z" />
    <glyph glyph-name="Hcircumflex" unicode="&#x124;" horiz-adv-x="765" 
d="M479 740l-97 93l-98 -93l-64 66l88 79h148l88 -79zM542 425v275h153v-700h-153v287h-320v-287h-153v700h153v-275h320z" />
    <glyph glyph-name="uni1E24" unicode="&#x1e24;" horiz-adv-x="765" 
d="M222 0h-153v700h153v-275h320v275h153v-700h-153v287h-320v-287zM447 -177h-129v127h129v-127z" />
    <glyph glyph-name="I" unicode="I" horiz-adv-x="292" 
d="M222 0h-153v700h153v-700z" />
    <glyph glyph-name="Iacute" unicode="&#xcd;" horiz-adv-x="292" 
d="M187 760h-118l101 138h153zM222 0h-153v700h153v-700z" />
    <glyph glyph-name="Ibreve" unicode="&#x12c;" horiz-adv-x="292" 
d="M147 750c-92 0 -156 53 -165 139h77c10 -31 43 -50 88 -50s78 19 87 50h78c-10 -86 -72 -139 -165 -139zM222 0h-153v700h153v-700z" />
    <glyph glyph-name="uni01CF" unicode="&#x1cf;" horiz-adv-x="292" 
d="M307 829l-88 -79h-148l-88 79l64 66l98 -93l97 93zM222 0h-153v700h153v-700z" />
    <glyph glyph-name="Icircumflex" unicode="&#xce;" horiz-adv-x="292" 
d="M71 885h148l88 -79l-65 -66l-97 93l-98 -93l-64 66zM222 0h-153v700h153v-700z" />
    <glyph glyph-name="Idieresis" unicode="&#xcf;" horiz-adv-x="292" 
d="M102 750h-130v128h130v-128zM319 750h-130v128h130v-128zM222 0h-153v700h153v-700z" />
    <glyph glyph-name="Idotaccent" unicode="&#x130;" horiz-adv-x="292" 
d="M210 760h-129v127h129v-127zM222 0h-153v700h153v-700z" />
    <glyph glyph-name="uni1ECA" unicode="&#x1eca;" horiz-adv-x="292" 
d="M222 0h-153v700h153v-700zM210 -177h-129v127h129v-127z" />
    <glyph glyph-name="Igrave" unicode="&#xcc;" horiz-adv-x="292" 
d="M223 760h-117l-137 138h153zM222 0h-153v700h153v-700z" />
    <glyph glyph-name="uni1EC8" unicode="&#x1ec8;" horiz-adv-x="292" 
d="M150 935c66 0 120 -35 120 -85c0 -38 -28 -67 -82 -80v-20h-86v57c50 6 82 13 82 32c0 15 -17 24 -44 24c-25 0 -48 -9 -85 -25l-28 69c45 19 82 28 123 28zM222 0h-153v700h153v-700z" />
    <glyph glyph-name="Imacron" unicode="&#x12a;" horiz-adv-x="292" 
d="M320 760h-349v86h349v-86zM222 0h-153v700h153v-700z" />
    <glyph glyph-name="Iogonek" unicode="&#x12e;" horiz-adv-x="292" 
d="M202 -103l37 -81c-35 -19 -69 -28 -108 -28c-66 0 -107 32 -107 89c0 46 27 86 83 123h-38v700h153v-700h-30c-45 -29 -73 -63 -73 -93c0 -19 9 -28 29 -28c16 0 35 6 54 18z" />
    <glyph glyph-name="Itilde" unicode="&#x128;" horiz-adv-x="292" 
d="M225 755c-66 0 -112 40 -155 40c-23 0 -38 -11 -43 -35h-74c5 74 48 117 115 117s112 -39 155 -39c23 0 38 11 43 34h74c-4 -75 -49 -117 -115 -117zM222 0h-153v700h153v-700z" />
    <glyph glyph-name="J" unicode="J" horiz-adv-x="641" 
d="M301 -15c-165 0 -269 93 -281 254l148 20c11 -97 52 -140 133 -140c78 0 123 58 123 160v421h153v-437c0 -173 -115 -278 -276 -278z" />
    <glyph glyph-name="Jcircumflex" unicode="&#x134;" horiz-adv-x="641" 
d="M426 885h148l88 -79l-65 -66l-97 93l-98 -93l-64 66zM424 279v421h153v-437c0 -173 -115 -278 -276 -278c-165 0 -269 93 -281 254l148 20c11 -97 52 -140 133 -140c78 0 123 58 123 160z" />
    <glyph glyph-name="K" unicode="K" horiz-adv-x="718" 
d="M222 0h-153v700h153v-318h2l297 318h199l-290 -300l293 -400h-187l-209 297h-4l-101 -107v-190z" />
    <glyph glyph-name="uni0136" unicode="&#x136;" horiz-adv-x="718" 
d="M222 0h-153v700h153v-319h2l297 319h199l-290 -300l293 -400h-187l-209 297h-4l-101 -107v-190zM316 -289v60c33 9 42 24 42 59h-47v120h132v-106c0 -79 -43 -124 -127 -133z" />
    <glyph glyph-name="L" unicode="L" horiz-adv-x="611" 
d="M586 0h-517v700h153v-565h364v-135z" />
    <glyph glyph-name="Lacute" unicode="&#x139;" horiz-adv-x="611" 
d="M187 760h-118l101 138h153zM586 0h-517v700h153v-565h364v-135z" />
    <glyph glyph-name="Lcaron" unicode="&#x13d;" horiz-adv-x="602" 
d="M586 0h-517v700h153v-565h364v-135zM474 461v60c33 9 43 24 43 59h-48v120h133v-106c0 -79 -43 -124 -128 -133z" />
    <glyph glyph-name="uni013B" unicode="&#x13b;" horiz-adv-x="611" 
d="M586 0h-517v700h153v-565h364v-135zM268 -289v60c33 9 42 24 42 59h-47v120h132v-106c0 -79 -43 -124 -127 -133z" />
    <glyph glyph-name="Ldot" unicode="&#x13f;" horiz-adv-x="611" 
d="M586 0h-517v700h153v-565h364v-135zM519 328h-165v160h165v-160z" />
    <glyph glyph-name="uni1E36" unicode="&#x1e36;" horiz-adv-x="611" 
d="M586 0h-517v700h153v-565h364v-135zM393 -177h-129v127h129v-127z" />
    <glyph glyph-name="Lslash" unicode="&#x141;" horiz-adv-x="668" 
d="M299 338v-203h364v-135h-517v221l-97 -89l-49 53l146 134v381h153v-255l145 135l53 -58z" />
    <glyph glyph-name="M" unicode="M" horiz-adv-x="994" 
d="M222 0h-153v700h176l250 -488h2l251 488h176v-700h-152v459h-2l-242 -459h-62l-242 459h-2v-459z" />
    <glyph glyph-name="N" unicode="N" horiz-adv-x="788" 
d="M222 0h-153v700h167l328 -485h2v485h153v-700h-166l-329 486h-2v-486z" />
    <glyph glyph-name="Nacute" unicode="&#x143;" horiz-adv-x="788" 
d="M436 760h-118l101 138h153zM222 0h-153v700h167l328 -485h2v485h153v-700h-166l-329 486h-2v-486z" />
    <glyph glyph-name="Ncaron" unicode="&#x147;" horiz-adv-x="788" 
d="M556 829l-88 -79h-148l-88 79l64 66l98 -93l97 93zM566 215v485h153v-700h-166l-329 486h-2v-486h-153v700h167l328 -485h2z" />
    <glyph glyph-name="uni0145" unicode="&#x145;" horiz-adv-x="788" 
d="M222 0h-153v700h167l328 -485h2v485h153v-700h-166l-329 486h-2v-486zM344 -289v60c33 9 42 24 42 59h-47v120h132v-106c0 -79 -43 -124 -127 -133z" />
    <glyph glyph-name="uni1E44" unicode="&#x1e44;" horiz-adv-x="788" 
d="M459 760h-129v127h129v-127zM222 0h-153v700h167l328 -485h2v485h153v-700h-166l-329 486h-2v-486z" />
    <glyph glyph-name="uni1E46" unicode="&#x1e46;" horiz-adv-x="788" 
d="M222 0h-153v700h167l328 -485h2v485h153v-700h-166l-329 486h-2v-486zM470 -177h-129v127h129v-127z" />
    <glyph glyph-name="Eng" unicode="&#x14a;" horiz-adv-x="788" 
d="M566 237v463h153v-735c0 -124 -54 -169 -195 -171h-71v135h76c34 0 47 14 47 48v23l-352 471h-2v-471h-153v700h149l346 -463h2z" />
    <glyph glyph-name="Ntilde" unicode="&#xd1;" horiz-adv-x="788" 
d="M474 755c-66 0 -112 40 -155 40c-23 0 -38 -11 -43 -35h-74c5 74 48 117 115 117s112 -39 155 -39c23 0 38 11 43 34h74c-4 -75 -49 -117 -115 -117zM222 0h-153v700h167l328 -485h2v485h153v-700h-166l-329 486h-2v-486z" />
    <glyph glyph-name="O" unicode="O" horiz-adv-x="794" 
d="M397 -15c-214 0 -368 152 -368 365s154 365 368 365s368 -152 368 -365s-154 -365 -368 -365zM397 119c128 0 215 93 215 231s-87 231 -215 231s-215 -93 -215 -231s87 -231 215 -231z" />
    <glyph glyph-name="Oacute" unicode="&#xd3;" horiz-adv-x="794" 
d="M439 775h-118l101 138h153zM397 -15c-214 0 -368 152 -368 365s154 365 368 365s368 -152 368 -365s-154 -365 -368 -365zM397 119c128 0 215 93 215 231s-87 231 -215 231s-215 -93 -215 -231s87 -231 215 -231z" />
    <glyph glyph-name="Obreve" unicode="&#x14e;" horiz-adv-x="794" 
d="M398 765c-92 0 -156 53 -165 139h77c10 -31 43 -50 88 -50s78 19 87 50h78c-10 -86 -72 -139 -165 -139zM397 -15c-214 0 -368 152 -368 365s154 365 368 365s368 -152 368 -365s-154 -365 -368 -365zM397 119c128 0 215 93 215 231s-87 231 -215 231s-215 -93 -215 -231
s87 -231 215 -231z" />
    <glyph glyph-name="uni01D1" unicode="&#x1d1;" horiz-adv-x="794" 
d="M559 844l-88 -79h-148l-88 79l64 66l98 -93l97 93zM397 715c214 0 368 -152 368 -365s-154 -365 -368 -365s-368 152 -368 365s154 365 368 365zM397 119c128 0 215 93 215 231s-87 231 -215 231s-215 -93 -215 -231s87 -231 215 -231z" />
    <glyph glyph-name="Ocircumflex" unicode="&#xd4;" horiz-adv-x="794" 
d="M494 755l-97 93l-98 -93l-64 66l88 79h148l88 -79zM397 715c214 0 368 -152 368 -365s-154 -365 -368 -365s-368 152 -368 365s154 365 368 365zM397 119c128 0 215 93 215 231s-87 231 -215 231s-215 -93 -215 -231s87 -231 215 -231z" />
    <glyph glyph-name="uni1ED0" unicode="&#x1ed0;" horiz-adv-x="794" 
d="M624 993h138l-122 -125h-107zM494 755l-97 93l-98 -93l-64 66l88 79h148l88 -79zM397 715c214 0 368 -152 368 -365s-154 -365 -368 -365s-368 152 -368 365s154 365 368 365zM397 119c128 0 215 93 215 231s-87 231 -215 231s-215 -93 -215 -231s87 -231 215 -231z" />
    <glyph glyph-name="uni1ED8" unicode="&#x1ed8;" horiz-adv-x="794" 
d="M494 755l-97 93l-98 -93l-64 66l88 79h148l88 -79zM397 715c214 0 368 -152 368 -365s-154 -365 -368 -365s-368 152 -368 365s154 365 368 365zM397 119c128 0 215 93 215 231s-87 231 -215 231s-215 -93 -215 -231s87 -231 215 -231zM461 -192h-129v127h129v-127z" />
    <glyph glyph-name="uni1ED2" unicode="&#x1ed2;" horiz-adv-x="794" 
d="M580 993l91 -125h-105l-123 125h137zM494 755l-97 93l-98 -93l-64 66l88 79h148l88 -79zM397 715c214 0 368 -152 368 -365s-154 -365 -368 -365s-368 152 -368 365s154 365 368 365zM397 119c128 0 215 93 215 231s-87 231 -215 231s-215 -93 -215 -231
s87 -231 215 -231z" />
    <glyph glyph-name="uni1ED4" unicode="&#x1ed4;" horiz-adv-x="794" 
d="M575 961c-23 0 -43 -8 -76 -23l-26 62c41 17 74 25 111 25c59 0 108 -31 108 -76c0 -35 -25 -61 -74 -73v-17h-77v51c44 6 73 12 73 29c0 14 -14 22 -39 22zM494 755l-97 93l-98 -93l-64 66l88 79h148l88 -79zM397 715c214 0 368 -152 368 -365s-154 -365 -368 -365
s-368 152 -368 365s154 365 368 365zM397 119c128 0 215 93 215 231s-87 231 -215 231s-215 -93 -215 -231s87 -231 215 -231z" />
    <glyph glyph-name="uni1ED6" unicode="&#x1ed6;" horiz-adv-x="794" 
d="M333 966c-20 0 -32 -11 -37 -34h-62c4 71 41 111 97 111s94 -36 130 -36c20 0 32 10 36 31h63c-4 -71 -42 -110 -97 -110s-94 38 -130 38zM236 821l88 79h147l88 -79l-64 -66l-97 93l-98 -93zM397 715c214 0 368 -152 368 -365s-154 -365 -368 -365s-368 152 -368 365
s154 365 368 365zM397 119c128 0 215 93 215 231s-87 231 -215 231s-215 -93 -215 -231s87 -231 215 -231z" />
    <glyph glyph-name="Odieresis" unicode="&#xd6;" horiz-adv-x="794" 
d="M353 765h-130v128h130v-128zM570 765h-130v128h130v-128zM397 -15c-214 0 -368 152 -368 365s154 365 368 365s368 -152 368 -365s-154 -365 -368 -365zM397 119c128 0 215 93 215 231s-87 231 -215 231s-215 -93 -215 -231s87 -231 215 -231z" />
    <glyph glyph-name="uni1ECC" unicode="&#x1ecc;" horiz-adv-x="794" 
d="M397 -15c-214 0 -368 152 -368 365s154 365 368 365s368 -152 368 -365s-154 -365 -368 -365zM397 119c128 0 215 93 215 231s-87 231 -215 231s-215 -93 -215 -231s87 -231 215 -231zM461 -192h-129v127h129v-127z" />
    <glyph glyph-name="Ograve" unicode="&#xd2;" horiz-adv-x="794" 
d="M474 775h-117l-137 138h153zM397 -15c-214 0 -368 152 -368 365s154 365 368 365s368 -152 368 -365s-154 -365 -368 -365zM397 119c128 0 215 93 215 231s-87 231 -215 231s-215 -93 -215 -231s87 -231 215 -231z" />
    <glyph glyph-name="uni1ECE" unicode="&#x1ece;" horiz-adv-x="794" 
d="M392 878c-25 0 -48 -9 -85 -25l-28 69c45 19 82 28 123 28c66 0 120 -35 120 -85c0 -38 -28 -67 -82 -80v-20h-86v57h1c49 6 81 13 81 32c0 15 -17 24 -44 24zM397 715c214 0 368 -152 368 -365s-154 -365 -368 -365s-368 152 -368 365s154 365 368 365zM397 119
c128 0 215 93 215 231s-87 231 -215 231s-215 -93 -215 -231s87 -231 215 -231z" />
    <glyph glyph-name="Ohorn" unicode="&#x1a0;" horiz-adv-x="794" 
d="M646 626c75 -65 119 -162 119 -276c0 -213 -154 -365 -368 -365s-368 152 -368 365s154 365 368 365c87 0 129 -20 185 -20c57 0 73 19 73 103h91c0 -102 -27 -155 -100 -172zM397 119c128 0 215 93 215 231s-87 231 -215 231s-215 -93 -215 -231s87 -231 215 -231z" />
    <glyph glyph-name="uni1EDA" unicode="&#x1eda;" horiz-adv-x="794" 
d="M422 913h153l-136 -138h-118zM646 626c75 -65 119 -162 119 -276c0 -213 -154 -365 -368 -365s-368 152 -368 365s154 365 368 365c87 0 129 -20 185 -20c57 0 73 19 73 103h91c0 -102 -27 -155 -100 -172zM397 119c128 0 215 93 215 231s-87 231 -215 231
s-215 -93 -215 -231s87 -231 215 -231z" />
    <glyph glyph-name="uni1EE2" unicode="&#x1ee2;" horiz-adv-x="794" 
d="M646 626c75 -65 119 -162 119 -276c0 -213 -154 -365 -368 -365s-368 152 -368 365s154 365 368 365c87 0 129 -20 185 -20c57 0 73 19 73 103h91c0 -102 -27 -155 -100 -172zM397 119c128 0 215 93 215 231s-87 231 -215 231s-215 -93 -215 -231s87 -231 215 -231z
M461 -192h-129v127h129v-127z" />
    <glyph glyph-name="uni1EDC" unicode="&#x1edc;" horiz-adv-x="794" 
d="M373 913l101 -138h-117l-137 138h153zM646 626c75 -65 119 -162 119 -276c0 -213 -154 -365 -368 -365s-368 152 -368 365s154 365 368 365c87 0 129 -20 185 -20c57 0 73 19 73 103h91c0 -102 -27 -155 -100 -172zM397 119c128 0 215 93 215 231s-87 231 -215 231
s-215 -93 -215 -231s87 -231 215 -231z" />
    <glyph glyph-name="uni1EDE" unicode="&#x1ede;" horiz-adv-x="794" 
d="M392 878c-25 0 -48 -9 -85 -25l-28 69c45 19 82 28 123 28c66 0 120 -35 120 -85c0 -38 -28 -67 -82 -80v-20h-86v57h1c49 6 81 13 81 32c0 15 -17 24 -44 24zM646 626c75 -65 119 -162 119 -276c0 -213 -154 -365 -368 -365s-368 152 -368 365s154 365 368 365
c87 0 129 -20 185 -20c57 0 73 19 73 103h91c0 -102 -27 -155 -100 -172zM397 119c128 0 215 93 215 231s-87 231 -215 231s-215 -93 -215 -231s87 -231 215 -231z" />
    <glyph glyph-name="uni1EE0" unicode="&#x1ee0;" horiz-adv-x="794" 
d="M321 810c-23 0 -38 -11 -43 -35h-74c5 74 48 117 115 117s112 -39 155 -39c23 0 38 11 43 34h74c-4 -75 -49 -117 -115 -117s-112 40 -155 40zM646 626c75 -65 119 -162 119 -276c0 -213 -154 -365 -368 -365s-368 152 -368 365s154 365 368 365c87 0 129 -20 185 -20
c57 0 73 19 73 103h91c0 -102 -27 -155 -100 -172zM397 119c128 0 215 93 215 231s-87 231 -215 231s-215 -93 -215 -231s87 -231 215 -231z" />
    <glyph glyph-name="Ohungarumlaut" unicode="&#x150;" horiz-adv-x="794" 
d="M322 775h-113l101 138h147zM529 775h-112l100 138h148zM397 -15c-214 0 -368 152 -368 365s154 365 368 365s368 -152 368 -365s-154 -365 -368 -365zM397 119c128 0 215 93 215 231s-87 231 -215 231s-215 -93 -215 -231s87 -231 215 -231z" />
    <glyph glyph-name="Omacron" unicode="&#x14c;" horiz-adv-x="794" 
d="M571 775h-349v86h349v-86zM397 -15c-214 0 -368 152 -368 365s154 365 368 365s368 -152 368 -365s-154 -365 -368 -365zM397 119c128 0 215 93 215 231s-87 231 -215 231s-215 -93 -215 -231s87 -231 215 -231z" />
    <glyph glyph-name="Oslash" unicode="&#xd8;" horiz-adv-x="794" 
d="M724 655l-50 -56c58 -64 91 -150 91 -249c0 -213 -154 -365 -368 -365c-80 0 -152 21 -211 60l-49 -56l-68 55l51 57c-58 64 -91 150 -91 249c0 213 154 365 368 365c80 0 152 -21 211 -60l48 55zM178 350c0 -55 13 -102 37 -140l302 343c-33 21 -74 33 -120 33
c-131 0 -219 -95 -219 -236zM397 114c131 0 219 95 219 236c0 55 -13 102 -37 140l-303 -343c34 -21 75 -33 121 -33z" />
    <glyph glyph-name="Oslashacute" unicode="&#x1fe;" horiz-adv-x="794" 
d="M422 913h153l-136 -138h-118zM724 655l-50 -56c58 -64 91 -150 91 -249c0 -213 -154 -365 -368 -365c-80 0 -152 21 -211 60l-49 -56l-68 55l51 57c-58 64 -91 150 -91 249c0 213 154 365 368 365c80 0 152 -21 211 -60l48 55zM178 350c0 -55 13 -102 37 -140l302 343
c-33 21 -74 33 -120 33c-131 0 -219 -95 -219 -236zM397 114c131 0 219 95 219 236c0 55 -13 102 -37 140l-303 -343c34 -21 75 -33 121 -33z" />
    <glyph glyph-name="Otilde" unicode="&#xd5;" horiz-adv-x="794" 
d="M476 770c-66 0 -112 40 -155 40c-23 0 -38 -11 -43 -35h-74c5 74 48 117 115 117s112 -39 155 -39c23 0 38 11 43 34h74c-4 -75 -49 -117 -115 -117zM397 -15c-214 0 -368 152 -368 365s154 365 368 365s368 -152 368 -365s-154 -365 -368 -365zM397 119
c128 0 215 93 215 231s-87 231 -215 231s-215 -93 -215 -231s87 -231 215 -231z" />
    <glyph glyph-name="uni1E4C" unicode="&#x1e4c;" horiz-adv-x="794" 
d="M439 922h-118l101 138h153zM476 770c-66 0 -112 40 -155 40c-23 0 -38 -11 -43 -35h-74c5 74 48 117 115 117s112 -39 155 -39c23 0 38 11 43 34h74c-4 -75 -49 -117 -115 -117zM397 -15c-214 0 -368 152 -368 365s154 365 368 365s368 -152 368 -365
s-154 -365 -368 -365zM397 119c128 0 215 93 215 231s-87 231 -215 231s-215 -93 -215 -231s87 -231 215 -231z" />
    <glyph glyph-name="OE" unicode="&#x152;" horiz-adv-x="1073" 
d="M378 -15c-213 0 -349 152 -349 365s145 365 349 365c66 0 127 -15 176 -44h2v29h477v-132h-327v-150h292v-125h-292v-161h327v-132h-477v29h-2c-49 -29 -110 -44 -176 -44zM391 116c69 0 124 20 165 68v332c-41 47 -96 67 -165 67c-127 0 -212 -94 -212 -233
c0 -140 76 -234 212 -234z" />
    <glyph glyph-name="P" unicode="P" horiz-adv-x="711" 
d="M222 0h-153v700h368c148 0 259 -87 259 -229c0 -144 -107 -229 -259 -229h-215v-242zM222 566v-190h206c66 0 115 34 115 96c0 66 -41 94 -115 94h-206z" />
    <glyph glyph-name="Thorn" unicode="&#xde;" horiz-adv-x="711" 
d="M222 584h215c148 0 259 -87 259 -229c0 -143 -107 -228 -259 -228h-215v-127h-153v700h153v-116zM222 261h206c66 0 115 33 115 95c0 67 -41 94 -115 94h-206v-189z" />
    <glyph glyph-name="Q" unicode="Q" horiz-adv-x="803" 
d="M699 132l75 -64l-75 -83l-80 67c-60 -43 -136 -67 -222 -67c-214 0 -368 152 -368 365s154 365 368 365s368 -152 368 -365c0 -84 -24 -159 -66 -218zM397 119c41 0 79 10 110 28l-149 125l77 82l149 -126c18 34 28 76 28 122c0 138 -87 231 -215 231s-215 -93 -215 -231
s87 -231 215 -231z" />
    <glyph glyph-name="R" unicode="R" horiz-adv-x="712" 
d="M511 261v-2l171 -259h-174l-162 253h-124v-253h-153v700h369c153 0 249 -87 249 -223c0 -113 -66 -192 -176 -216zM222 566v-178h201c70 0 111 32 111 91s-35 87 -113 87h-199z" />
    <glyph glyph-name="Racute" unicode="&#x154;" horiz-adv-x="712" 
d="M377 898h153l-136 -138h-118zM511 261v-2l171 -259h-174l-162 253h-124v-253h-153v700h369c153 0 249 -87 249 -223c0 -113 -66 -192 -176 -216zM222 566v-178h201c70 0 111 32 111 91s-35 87 -113 87h-199z" />
    <glyph glyph-name="Rcaron" unicode="&#x158;" horiz-adv-x="712" 
d="M514 829l-88 -79h-148l-88 79l64 66l98 -93l97 93zM511 261v-2l171 -259h-174l-162 253h-124v-253h-153v700h369c153 0 249 -87 249 -223c0 -113 -66 -192 -176 -216zM222 566v-178h201c70 0 111 32 111 91s-35 87 -113 87h-199z" />
    <glyph glyph-name="uni0156" unicode="&#x156;" horiz-adv-x="712" 
d="M511 261v-2l171 -259h-174l-162 253h-124v-253h-153v700h369c153 0 249 -87 249 -223c0 -113 -66 -192 -176 -216zM222 566v-178h201c70 0 111 32 111 91s-35 87 -113 87h-199zM344 -170h-47v120h132v-106c0 -79 -43 -124 -127 -133v60c33 9 42 24 42 59z" />
    <glyph glyph-name="S" unicode="S" horiz-adv-x="670" 
d="M362 -15c-189 0 -316 89 -343 246l150 30c21 -101 85 -147 194 -147c88 0 135 29 135 79c0 47 -46 73 -200 109c-183 44 -254 109 -254 208c0 118 112 204 272 204s286 -81 318 -210l-147 -35c-23 76 -84 115 -171 115c-73 0 -119 -31 -119 -73c0 -36 29 -50 186 -90
c191 -48 268 -118 268 -227c0 -128 -110 -209 -289 -209z" />
    <glyph glyph-name="Sacute" unicode="&#x15a;" horiz-adv-x="670" 
d="M355 774h-118l101 138h153zM362 -15c-189 0 -316 89 -343 246l150 30c21 -101 85 -147 194 -147c88 0 135 29 135 79c0 47 -46 73 -200 109c-183 44 -254 109 -254 208c0 118 112 204 272 204s286 -81 318 -210l-147 -35c-23 76 -84 115 -171 115
c-73 0 -119 -31 -119 -73c0 -36 29 -50 186 -90c191 -48 268 -118 268 -227c0 -128 -110 -209 -289 -209z" />
    <glyph glyph-name="Scaron" unicode="&#x160;" horiz-adv-x="670" 
d="M475 843l-88 -79h-148l-88 79l64 66l98 -93l97 93zM383 421c191 -48 268 -118 268 -227c0 -128 -110 -209 -289 -209c-189 0 -316 89 -343 246l150 30c21 -101 85 -147 194 -147c88 0 135 29 135 79c0 47 -46 73 -200 109c-183 44 -254 109 -254 208
c0 118 112 204 272 204s286 -81 318 -210l-147 -35c-23 76 -84 115 -171 115c-73 0 -119 -31 -119 -73c0 -36 29 -50 186 -90z" />
    <glyph glyph-name="Scedilla" unicode="&#x15e;" horiz-adv-x="670" 
d="M651 194c0 -123 -102 -203 -268 -209l-29 -42c10 3 21 4 32 4c67 0 114 -37 114 -95c0 -67 -52 -111 -132 -111c-43 0 -88 15 -124 40l47 67c25 -18 47 -27 71 -27c30 0 48 14 48 36c0 18 -19 30 -46 30c-20 0 -38 -6 -55 -19l-59 25l58 95c-159 15 -265 102 -289 243
l150 30c21 -101 85 -147 194 -147c88 0 135 29 135 79c0 47 -46 73 -200 109c-183 44 -254 109 -254 208c0 118 112 204 272 204s286 -81 318 -210l-147 -35c-23 76 -84 115 -171 115c-73 0 -119 -31 -119 -73c0 -36 29 -50 186 -90c191 -48 268 -118 268 -227z" />
    <glyph glyph-name="Scircumflex" unicode="&#x15c;" horiz-adv-x="670" 
d="M410 754l-97 93l-98 -93l-64 66l88 79h148l88 -79zM383 421c191 -48 268 -118 268 -227c0 -128 -110 -209 -289 -209c-189 0 -316 89 -343 246l150 30c21 -101 85 -147 194 -147c88 0 135 29 135 79c0 47 -46 73 -200 109c-183 44 -254 109 -254 208
c0 118 112 204 272 204s286 -81 318 -210l-147 -35c-23 76 -84 115 -171 115c-73 0 -119 -31 -119 -73c0 -36 29 -50 186 -90z" />
    <glyph glyph-name="uni0218" unicode="&#x218;" horiz-adv-x="670" 
d="M362 -15c-189 0 -316 89 -343 246l150 30c21 -101 85 -147 194 -147c88 0 135 29 135 79c0 47 -46 73 -200 109c-183 44 -254 109 -254 208c0 118 112 204 272 204s286 -81 318 -210l-147 -35c-23 76 -84 115 -171 115c-73 0 -119 -31 -119 -73c0 -36 29 -50 186 -90
c191 -48 268 -118 268 -227c0 -128 -110 -209 -289 -209zM297 -304v60c33 9 42 24 42 59h-47v120h132v-106c0 -79 -43 -124 -127 -133z" />
    <glyph glyph-name="uni1E62" unicode="&#x1e62;" horiz-adv-x="670" 
d="M362 -15c-189 0 -316 89 -343 246l150 30c21 -101 85 -147 194 -147c88 0 135 29 135 79c0 47 -46 73 -200 109c-183 44 -254 109 -254 208c0 118 112 204 272 204s286 -81 318 -210l-147 -35c-23 76 -84 115 -171 115c-73 0 -119 -31 -119 -73c0 -36 29 -50 186 -90
c191 -48 268 -118 268 -227c0 -128 -110 -209 -289 -209zM422 -192h-129v127h129v-127z" />
    <glyph glyph-name="uni1E9E" unicode="&#x1e9e;" horiz-adv-x="747" 
d="M684 584l-173 -164c116 -17 206 -95 206 -192c0 -135 -115 -228 -281 -228h-138v135h130c86 0 135 34 135 94c0 56 -50 90 -135 90h-100v95l170 155h-147c-90 0 -128 -29 -128 -101v-468h-154v469c0 147 98 231 272 231h343v-116z" />
    <glyph glyph-name="uni018F" unicode="&#x18f;" horiz-adv-x="763" 
d="M380 -15c-206 0 -351 139 -351 365v62h548c-16 100 -88 169 -197 169c-79 0 -153 -49 -203 -126l-123 80c70 108 181 180 327 180c209 0 353 -146 353 -368c0 -213 -144 -362 -354 -362zM381 119c98 0 186 63 196 168h-390c1 -103 94 -168 194 -168z" />
    <glyph glyph-name="T" unicode="T" horiz-adv-x="700" 
d="M426 0h-153v565h-249v135h651v-135h-249v-565z" />
    <glyph glyph-name="Tbar" unicode="&#x166;" horiz-adv-x="700" 
d="M675 700v-135h-249v-176h139v-122h-139v-267h-153v267h-138v122h138v176h-249v135h651z" />
    <glyph glyph-name="Tcaron" unicode="&#x164;" horiz-adv-x="700" 
d="M512 829l-88 -79h-148l-88 79l64 66l98 -93l97 93zM24 565v135h651v-135h-249v-565h-153v565h-249z" />
    <glyph glyph-name="uni0162" unicode="&#x162;" horiz-adv-x="700" 
d="M426 565v-565h-50l-29 -42c10 3 21 4 32 4c67 0 114 -37 114 -95c0 -67 -52 -111 -132 -111c-43 0 -88 15 -124 40l47 67c25 -18 47 -27 71 -27c30 0 48 14 48 36c0 18 -19 30 -46 30c-20 0 -38 -6 -55 -19l-59 25l56 92h-26v565h-249v135h651v-135h-249z" />
    <glyph glyph-name="uni021A" unicode="&#x21a;" horiz-adv-x="700" 
d="M426 0h-153v565h-249v135h651v-135h-249v-565zM289 -289v60c33 9 42 24 42 59h-47v120h132v-106c0 -79 -43 -124 -127 -133z" />
    <glyph glyph-name="uni1E6C" unicode="&#x1e6c;" horiz-adv-x="700" 
d="M426 0h-153v565h-249v135h651v-135h-249v-565zM415 -177h-129v127h129v-127z" />
    <glyph glyph-name="U" unicode="U" horiz-adv-x="762" 
d="M381 -15c-200 0 -317 95 -317 284v431h153v-424c0 -110 56 -157 164 -157c107 0 164 47 164 156v425h153v-431c0 -189 -117 -284 -317 -284z" />
    <glyph glyph-name="Uacute" unicode="&#xda;" horiz-adv-x="762" 
d="M423 760h-118l101 138h153zM381 -15c-200 0 -317 95 -317 284v431h153v-424c0 -110 56 -157 164 -157c107 0 164 47 164 156v425h153v-431c0 -189 -117 -284 -317 -284z" />
    <glyph glyph-name="Ubreve" unicode="&#x16c;" horiz-adv-x="762" 
d="M382 750c-92 0 -156 53 -165 139h77c10 -31 43 -50 88 -50s78 19 87 50h78c-10 -86 -72 -139 -165 -139zM381 -15c-200 0 -317 95 -317 284v431h153v-424c0 -110 56 -157 164 -157c107 0 164 47 164 156v425h153v-431c0 -189 -117 -284 -317 -284z" />
    <glyph glyph-name="uni01D3" unicode="&#x1d3;" horiz-adv-x="762" 
d="M543 829l-88 -79h-148l-88 79l64 66l98 -93l97 93zM545 275v425h153v-431c0 -189 -117 -284 -317 -284s-317 95 -317 284v431h153v-424c0 -110 56 -157 164 -157c107 0 164 47 164 156z" />
    <glyph glyph-name="Ucircumflex" unicode="&#xdb;" horiz-adv-x="762" 
d="M478 740l-97 93l-98 -93l-64 66l88 79h148l88 -79zM545 275v425h153v-431c0 -189 -117 -284 -317 -284s-317 95 -317 284v431h153v-424c0 -110 56 -157 164 -157c107 0 164 47 164 156z" />
    <glyph glyph-name="Udieresis" unicode="&#xdc;" horiz-adv-x="762" 
d="M337 750h-130v128h130v-128zM554 750h-130v128h130v-128zM381 -15c-200 0 -317 95 -317 284v431h153v-424c0 -110 56 -157 164 -157c107 0 164 47 164 156v425h153v-431c0 -189 -117 -284 -317 -284z" />
    <glyph glyph-name="uni01D7" unicode="&#x1d7;" horiz-adv-x="762" 
d="M423 918h-118l101 138h153zM337 750h-130v128h130v-128zM554 750h-130v128h130v-128zM381 -15c-200 0 -317 95 -317 284v431h153v-424c0 -110 56 -157 164 -157c107 0 164 47 164 156v425h153v-431c0 -189 -117 -284 -317 -284z" />
    <glyph glyph-name="uni01D9" unicode="&#x1d9;" horiz-adv-x="762" 
d="M543 987l-88 -79h-148l-88 79l64 66l98 -93l97 93zM207 878h130v-128h-130v128zM554 750h-130v128h130v-128zM545 275v425h153v-431c0 -189 -117 -284 -317 -284s-317 95 -317 284v431h153v-424c0 -110 56 -157 164 -157c107 0 164 47 164 156z" />
    <glyph glyph-name="uni01DB" unicode="&#x1db;" horiz-adv-x="762" 
d="M458 918h-117l-137 138h153zM337 750h-130v128h130v-128zM554 750h-130v128h130v-128zM381 -15c-200 0 -317 95 -317 284v431h153v-424c0 -110 56 -157 164 -157c107 0 164 47 164 156v425h153v-431c0 -189 -117 -284 -317 -284z" />
    <glyph glyph-name="uni01D5" unicode="&#x1d5;" horiz-adv-x="762" 
d="M555 918h-349v86h349v-86zM337 750h-130v128h130v-128zM554 750h-130v128h130v-128zM381 -15c-200 0 -317 95 -317 284v431h153v-424c0 -110 56 -157 164 -157c107 0 164 47 164 156v425h153v-431c0 -189 -117 -284 -317 -284z" />
    <glyph glyph-name="uni1EE4" unicode="&#x1ee4;" horiz-adv-x="762" 
d="M381 -15c-200 0 -317 95 -317 284v431h153v-424c0 -110 56 -157 164 -157c107 0 164 47 164 156v425h153v-431c0 -189 -117 -284 -317 -284zM446 -192h-129v127h129v-127z" />
    <glyph glyph-name="Ugrave" unicode="&#xd9;" horiz-adv-x="762" 
d="M458 760h-117l-137 138h153zM381 -15c-200 0 -317 95 -317 284v431h153v-424c0 -110 56 -157 164 -157c107 0 164 47 164 156v425h153v-431c0 -189 -117 -284 -317 -284z" />
    <glyph glyph-name="uni1EE6" unicode="&#x1ee6;" horiz-adv-x="762" 
d="M376 863c-25 0 -48 -9 -85 -25l-28 69c45 19 82 28 123 28c66 0 120 -35 120 -85c0 -38 -28 -67 -82 -80v-20h-86v57h1c49 6 81 13 81 32c0 15 -17 24 -44 24zM545 275v425h153v-431c0 -189 -117 -284 -317 -284s-317 95 -317 284v431h153v-424c0 -110 56 -157 164 -157
c107 0 164 47 164 156z" />
    <glyph glyph-name="Uhorn" unicode="&#x1af;" horiz-adv-x="763" 
d="M717 798h91c0 -110 -32 -161 -110 -172v-357c0 -189 -117 -284 -317 -284s-317 95 -317 284v431h153v-424c0 -110 56 -157 164 -157c107 0 164 47 164 156v425h111c47 0 61 17 61 98z" />
    <glyph glyph-name="uni1EE8" unicode="&#x1ee8;" horiz-adv-x="763" 
d="M406 898h153l-136 -138h-118zM717 798h91c0 -110 -32 -161 -110 -172v-357c0 -189 -117 -284 -317 -284s-317 95 -317 284v431h153v-424c0 -110 56 -157 164 -157c107 0 164 47 164 156v425h111c47 0 61 17 61 98z" />
    <glyph glyph-name="uni1EF0" unicode="&#x1ef0;" horiz-adv-x="763" 
d="M717 798h91c0 -110 -32 -161 -110 -172v-357c0 -189 -117 -284 -317 -284s-317 95 -317 284v431h153v-424c0 -110 56 -157 164 -157c107 0 164 47 164 156v425h111c47 0 61 17 61 98zM446 -192h-129v127h129v-127z" />
    <glyph glyph-name="uni1EEA" unicode="&#x1eea;" horiz-adv-x="763" 
d="M357 898l101 -138h-117l-137 138h153zM717 798h91c0 -110 -32 -161 -110 -172v-357c0 -189 -117 -284 -317 -284s-317 95 -317 284v431h153v-424c0 -110 56 -157 164 -157c107 0 164 47 164 156v425h111c47 0 61 17 61 98z" />
    <glyph glyph-name="uni1EEC" unicode="&#x1eec;" horiz-adv-x="763" 
d="M376 863c-25 0 -48 -9 -85 -25l-28 69c45 19 82 28 123 28c66 0 120 -35 120 -85c0 -38 -28 -67 -82 -80v-20h-86v57h1c49 6 81 13 81 32c0 15 -17 24 -44 24zM717 798h91c0 -110 -32 -161 -110 -172v-357c0 -189 -117 -284 -317 -284s-317 95 -317 284v431h153v-424
c0 -110 56 -157 164 -157c107 0 164 47 164 156v425h111c47 0 61 17 61 98z" />
    <glyph glyph-name="uni1EEE" unicode="&#x1eee;" horiz-adv-x="763" 
d="M305 795c-23 0 -38 -11 -43 -35h-74c5 74 48 117 115 117s112 -39 155 -39c23 0 38 11 43 34h74c-4 -75 -49 -117 -115 -117s-112 40 -155 40zM717 798h91c0 -110 -32 -161 -110 -172v-357c0 -189 -117 -284 -317 -284s-317 95 -317 284v431h153v-424
c0 -110 56 -157 164 -157c107 0 164 47 164 156v425h111c47 0 61 17 61 98z" />
    <glyph glyph-name="Uhungarumlaut" unicode="&#x170;" horiz-adv-x="762" 
d="M307 760h-113l101 138h147zM514 760h-112l100 138h148zM381 -15c-200 0 -317 95 -317 284v431h153v-424c0 -110 56 -157 164 -157c107 0 164 47 164 156v425h153v-431c0 -189 -117 -284 -317 -284z" />
    <glyph glyph-name="Umacron" unicode="&#x16a;" horiz-adv-x="762" 
d="M555 760h-349v86h349v-86zM381 -15c-200 0 -317 95 -317 284v431h153v-424c0 -110 56 -157 164 -157c107 0 164 47 164 156v425h153v-431c0 -189 -117 -284 -317 -284z" />
    <glyph glyph-name="Uogonek" unicode="&#x172;" horiz-adv-x="762" 
d="M545 275v425h153v-431c0 -145 -69 -235 -192 -269c-45 -29 -73 -63 -73 -93c0 -19 10 -28 29 -28c16 0 35 6 54 18l37 -81c-35 -19 -69 -28 -108 -28c-66 0 -107 32 -107 89c0 40 21 76 63 108h-20c-200 0 -317 95 -317 284v431h153v-424c0 -110 56 -157 164 -157
c107 0 164 47 164 156z" />
    <glyph glyph-name="Uring" unicode="&#x16e;" horiz-adv-x="762" 
d="M383 686c-87 0 -151 56 -151 134s64 134 151 134c86 0 150 -56 150 -134s-64 -134 -150 -134zM383 752c40 0 68 28 68 68s-28 68 -68 68c-41 0 -69 -28 -69 -68s28 -68 69 -68zM381 -15c-200 0 -317 95 -317 284v431h153v-424c0 -110 56 -157 164 -157
c107 0 164 47 164 156v425h153v-431c0 -189 -117 -284 -317 -284z" />
    <glyph glyph-name="Utilde" unicode="&#x168;" horiz-adv-x="762" 
d="M460 755c-66 0 -112 40 -155 40c-23 0 -38 -11 -43 -35h-74c5 74 48 117 115 117s112 -39 155 -39c23 0 38 11 43 34h74c-4 -75 -49 -117 -115 -117zM381 -15c-200 0 -317 95 -317 284v431h153v-424c0 -110 56 -157 164 -157c107 0 164 47 164 156v425h153v-431
c0 -189 -117 -284 -317 -284z" />
    <glyph glyph-name="V" unicode="V" horiz-adv-x="783" 
d="M468 0h-153l-320 700h173l223 -505h2l222 505h174z" />
    <glyph glyph-name="W" unicode="W" horiz-adv-x="1049" 
d="M344 0h-158l-176 700h157l118 -484h2l170 484h135l170 -484h2l119 484h156l-176 -700h-160l-178 482h-2z" />
    <glyph glyph-name="Wacute" unicode="&#x1e82;" horiz-adv-x="1049" 
d="M566 760h-118l101 138h153zM344 0h-158l-176 700h157l118 -484h2l170 484h135l170 -484h2l119 484h156l-176 -700h-160l-178 482h-2z" />
    <glyph glyph-name="Wcircumflex" unicode="&#x174;" horiz-adv-x="1049" 
d="M621 740l-97 93l-98 -93l-64 66l88 79h148l88 -79zM764 216l119 484h156l-176 -700h-160l-178 482h-2l-179 -482h-158l-176 700h157l118 -484h2l170 484h135l170 -484h2z" />
    <glyph glyph-name="Wdieresis" unicode="&#x1e84;" horiz-adv-x="1049" 
d="M480 750h-130v128h130v-128zM697 750h-130v128h130v-128zM344 0h-158l-176 700h157l118 -484h2l170 484h135l170 -484h2l119 484h156l-176 -700h-160l-178 482h-2z" />
    <glyph glyph-name="Wgrave" unicode="&#x1e80;" horiz-adv-x="1049" 
d="M601 760h-117l-137 138h153zM344 0h-158l-176 700h157l118 -484h2l170 484h135l170 -484h2l119 484h156l-176 -700h-160l-178 482h-2z" />
    <glyph glyph-name="X" unicode="X" horiz-adv-x="755" 
d="M187 0h-187l277 355l-270 345h187l182 -246h2l181 246h188l-271 -345l279 -355h-188l-189 256h-2z" />
    <glyph glyph-name="Y" unicode="Y" horiz-adv-x="716" 
d="M434 0h-153v277l-291 423h175l192 -296h2l192 296h175l-292 -423v-277z" />
    <glyph glyph-name="Yacute" unicode="&#xdd;" horiz-adv-x="716" 
d="M400 760h-118l101 138h153zM434 0h-153v277l-291 423h175l192 -296h2l192 296h175l-292 -423v-277z" />
    <glyph glyph-name="Ycircumflex" unicode="&#x176;" horiz-adv-x="716" 
d="M455 740l-97 93l-98 -93l-64 66l88 79h148l88 -79zM359 404l192 296h175l-292 -423v-277h-153v277l-291 423h175l192 -296h2z" />
    <glyph glyph-name="Ydieresis" unicode="&#x178;" horiz-adv-x="716" 
d="M314 750h-130v128h130v-128zM531 750h-130v128h130v-128zM434 0h-153v277l-291 423h175l192 -296h2l192 296h175l-292 -423v-277z" />
    <glyph glyph-name="uni1EF4" unicode="&#x1ef4;" horiz-adv-x="716" 
d="M434 0h-153v277l-291 423h175l192 -296h2l192 296h175l-292 -423v-277zM423 -177h-129v127h129v-127z" />
    <glyph glyph-name="Ygrave" unicode="&#x1ef2;" horiz-adv-x="716" 
d="M435 760h-117l-137 138h153zM434 0h-153v277l-291 423h175l192 -296h2l192 296h175l-292 -423v-277z" />
    <glyph glyph-name="uni1EF6" unicode="&#x1ef6;" horiz-adv-x="716" 
d="M353 863c-25 0 -48 -9 -85 -25l-28 69c45 19 82 28 123 28c66 0 120 -35 120 -85c0 -38 -28 -67 -82 -80v-20h-86v57h1c49 6 81 13 81 32c0 15 -17 24 -44 24zM359 404l192 296h175l-292 -423v-277h-153v277l-291 423h175l192 -296h2z" />
    <glyph glyph-name="uni1EF8" unicode="&#x1ef8;" horiz-adv-x="716" 
d="M437 755c-66 0 -112 40 -155 40c-23 0 -38 -11 -43 -35h-74c5 74 48 117 115 117s112 -39 155 -39c23 0 38 11 43 34h74c-4 -75 -49 -117 -115 -117zM434 0h-153v277l-291 423h175l192 -296h2l192 296h175l-292 -423v-277z" />
    <glyph glyph-name="Z" unicode="Z" horiz-adv-x="704" 
d="M660 0h-625v119l424 445v2h-414v134h624v-119l-425 -445v-2h416v-134z" />
    <glyph glyph-name="Zacute" unicode="&#x179;" horiz-adv-x="704" 
d="M399 760h-118l101 138h153zM659 0h-624v119l424 445v2h-414v134h624v-119l-425 -445v-2h415v-134z" />
    <glyph glyph-name="Zcaron" unicode="&#x17d;" horiz-adv-x="704" 
d="M519 829l-88 -79h-148l-88 79l64 66l98 -93l97 93zM669 700v-119l-425 -445v-2h415v-134h-624v119l424 445v2h-414v134h624z" />
    <glyph glyph-name="Zdotaccent" unicode="&#x17b;" horiz-adv-x="704" 
d="M422 760h-129v127h129v-127zM659 0h-624v119l424 445v2h-414v134h624v-119l-425 -445v-2h415v-134z" />
    <glyph glyph-name="uni1E92" unicode="&#x1e92;" horiz-adv-x="704" 
d="M659 0h-624v119l424 445v2h-414v134h624v-119l-425 -445v-2h415v-134zM416 -177h-129v127h129v-127z" />
    <glyph glyph-name="a" unicode="a" horiz-adv-x="593" 
d="M234 -15c-118 0 -198 64 -198 158c0 98 64 146 213 171c119 21 146 30 146 56c0 35 -37 56 -94 56c-68 0 -119 -37 -132 -95l-140 29c21 110 130 185 268 185c155 0 251 -79 251 -208v-337h-133v58h-2c-32 -45 -100 -73 -179 -73zM256 107c86 0 151 39 151 90v64h-2
c-13 -19 -41 -30 -113 -44c-87 -17 -118 -33 -118 -64c0 -32 26 -46 82 -46z" />
    <glyph glyph-name="aacute" unicode="&#xe1;" horiz-adv-x="593" 
d="M338 605h-118l101 138h153zM234 -15c-118 0 -198 64 -198 158c0 98 64 146 213 171c119 21 146 30 146 56c0 35 -37 56 -94 56c-68 0 -120 -37 -132 -95l-140 29c21 110 130 185 268 185c155 0 251 -79 251 -208v-337h-133v58h-2c-32 -45 -100 -73 -179 -73zM256 107
c86 0 151 39 151 90v64h-2c-13 -19 -41 -30 -113 -44c-87 -17 -118 -33 -118 -64c0 -32 26 -46 82 -46z" />
    <glyph glyph-name="abreve" unicode="&#x103;" horiz-adv-x="593" 
d="M297 595c-92 0 -156 53 -165 139h77c10 -31 43 -50 88 -50s78 19 87 50h78c-10 -86 -72 -139 -165 -139zM234 -15c-118 0 -198 64 -198 158c0 98 64 146 213 171c119 21 146 30 146 56c0 35 -37 56 -94 56c-68 0 -120 -37 -132 -95l-140 29c21 110 130 185 268 185
c155 0 251 -79 251 -208v-337h-133v58h-2c-32 -45 -100 -73 -179 -73zM256 107c86 0 151 39 151 90v64h-2c-13 -19 -41 -30 -113 -44c-87 -17 -118 -33 -118 -64c0 -32 26 -46 82 -46z" />
    <glyph glyph-name="uni1EAF" unicode="&#x1eaf;" horiz-adv-x="593" 
d="M336 764h-118l101 138h153zM295 595c-92 0 -156 53 -165 139h77c10 -31 43 -50 88 -50s78 19 87 50h78c-10 -86 -72 -139 -165 -139zM234 -15c-118 0 -198 64 -198 158c0 98 64 146 213 171c119 21 146 30 146 56c0 35 -37 56 -94 56c-68 0 -120 -37 -132 -95l-140 29
c21 110 130 185 268 185c155 0 251 -79 251 -208v-337h-133v58h-2c-32 -45 -100 -73 -179 -73zM256 107c86 0 151 39 151 90v64h-2c-13 -19 -41 -30 -113 -44c-87 -17 -118 -33 -118 -64c0 -32 26 -46 82 -46z" />
    <glyph glyph-name="uni1EB7" unicode="&#x1eb7;" horiz-adv-x="593" 
d="M297 595c-92 0 -156 53 -165 139h77c10 -31 43 -50 88 -50s78 19 87 50h78c-10 -86 -72 -139 -165 -139zM234 -15c-118 0 -198 64 -198 158c0 98 64 146 213 171c119 21 146 30 146 56c0 35 -37 56 -94 56c-68 0 -120 -37 -132 -95l-140 29c21 110 130 185 268 185
c155 0 251 -79 251 -208v-337h-133v58h-2c-32 -45 -100 -73 -179 -73zM256 107c86 0 151 39 151 90v64h-2c-13 -19 -41 -30 -113 -44c-87 -17 -118 -33 -118 -64c0 -32 26 -46 82 -46zM359 -192h-129v127h129v-127z" />
    <glyph glyph-name="uni1EB1" unicode="&#x1eb1;" horiz-adv-x="593" 
d="M372 764h-117l-137 138h153zM296 595c-92 0 -156 53 -165 139h77c10 -31 43 -50 88 -50s78 19 87 50h78c-10 -86 -72 -139 -165 -139zM234 -15c-118 0 -198 64 -198 158c0 98 64 146 213 171c119 21 146 30 146 56c0 35 -37 56 -94 56c-68 0 -120 -37 -132 -95l-140 29
c21 110 130 185 268 185c155 0 251 -79 251 -208v-337h-133v58h-2c-32 -45 -100 -73 -179 -73zM256 107c86 0 151 39 151 90v64h-2c-13 -19 -41 -30 -113 -44c-87 -17 -118 -33 -118 -64c0 -32 26 -46 82 -46z" />
    <glyph glyph-name="uni1EB3" unicode="&#x1eb3;" horiz-adv-x="593" 
d="M285 836c-23 0 -43 -8 -76 -23l-26 62c41 17 74 25 111 25c59 0 108 -31 108 -76c0 -35 -26 -60 -74 -72v-18h-77v52c44 5 73 11 73 28c0 14 -15 22 -39 22zM297 595c-92 0 -156 53 -165 139h77c10 -31 43 -50 88 -50s78 19 87 50h78c-10 -86 -72 -139 -165 -139z
M297 545c155 0 251 -79 251 -208v-337h-133v58h-2c-32 -45 -100 -73 -179 -73c-118 0 -198 64 -198 158c0 98 64 146 213 171c119 21 146 30 146 56c0 35 -37 56 -94 56c-68 0 -120 -37 -132 -95l-140 29c21 110 130 185 268 185zM407 197v64h-2c-13 -19 -41 -30 -113 -44
c-87 -17 -118 -33 -118 -64c0 -32 26 -46 82 -46c86 0 151 39 151 90z" />
    <glyph glyph-name="uni1EB5" unicode="&#x1eb5;" horiz-adv-x="593" 
d="M364 758c-56 0 -96 38 -132 38c-20 0 -33 -11 -37 -34h-63c4 71 41 111 98 111s95 -36 132 -36c19 0 32 10 36 31h64c-4 -71 -42 -110 -98 -110zM297 595c-92 0 -156 53 -165 139h77c10 -31 43 -50 88 -50s78 19 87 50h78c-10 -86 -72 -139 -165 -139zM234 -15
c-118 0 -198 64 -198 158c0 98 64 146 213 171c119 21 146 30 146 56c0 35 -37 56 -94 56c-68 0 -120 -37 -132 -95l-140 29c21 110 130 185 268 185c155 0 251 -79 251 -208v-337h-133v58h-2c-32 -45 -100 -73 -179 -73zM256 107c86 0 151 39 151 90v64h-2
c-13 -19 -41 -30 -113 -44c-87 -17 -118 -33 -118 -64c0 -32 26 -46 82 -46z" />
    <glyph glyph-name="uni01CE" unicode="&#x1ce;" horiz-adv-x="593" 
d="M458 674l-88 -79h-148l-88 79l64 66l98 -93l97 93zM297 545c155 0 251 -79 251 -208v-337h-133v58h-2c-32 -45 -100 -73 -179 -73c-118 0 -198 64 -198 158c0 98 64 146 213 171c119 21 146 30 146 56c0 35 -37 56 -94 56c-68 0 -120 -37 -132 -95l-140 29
c21 110 130 185 268 185zM407 197v64h-2c-13 -19 -41 -30 -113 -44c-87 -17 -118 -33 -118 -64c0 -32 26 -46 82 -46c86 0 151 39 151 90z" />
    <glyph glyph-name="acircumflex" unicode="&#xe2;" horiz-adv-x="593" 
d="M393 585l-97 93l-98 -93l-64 66l88 79h148l88 -79zM297 545c155 0 251 -79 251 -208v-337h-133v58h-2c-32 -45 -100 -73 -179 -73c-118 0 -198 64 -198 158c0 98 64 146 213 171c119 21 146 30 146 56c0 35 -37 56 -94 56c-68 0 -120 -37 -132 -95l-140 29
c21 110 130 185 268 185zM407 197v64h-2c-13 -19 -41 -30 -113 -44c-87 -17 -118 -33 -118 -64c0 -32 26 -46 82 -46c86 0 151 39 151 90z" />
    <glyph glyph-name="uni1EA5" unicode="&#x1ea5;" horiz-adv-x="593" 
d="M523 823h138l-122 -125h-107zM393 585l-97 93l-98 -93l-64 66l88 79h148l88 -79zM297 545c155 0 251 -79 251 -208v-337h-133v58h-2c-32 -45 -100 -73 -179 -73c-118 0 -198 64 -198 158c0 98 64 146 213 171c119 21 146 30 146 56c0 35 -37 56 -94 56
c-68 0 -120 -37 -132 -95l-140 29c21 110 130 185 268 185zM407 197v64h-2c-13 -19 -41 -30 -113 -44c-87 -17 -118 -33 -118 -64c0 -32 26 -46 82 -46c86 0 151 39 151 90z" />
    <glyph glyph-name="uni1EAD" unicode="&#x1ead;" horiz-adv-x="593" 
d="M393 585l-97 93l-98 -93l-64 66l88 79h148l88 -79zM297 545c155 0 251 -79 251 -208v-337h-133v58h-2c-32 -45 -100 -73 -179 -73c-118 0 -198 64 -198 158c0 98 64 146 213 171c119 21 146 30 146 56c0 35 -37 56 -94 56c-68 0 -120 -37 -132 -95l-140 29
c21 110 130 185 268 185zM407 197v64h-2c-13 -19 -41 -30 -113 -44c-87 -17 -118 -33 -118 -64c0 -32 26 -46 82 -46c86 0 151 39 151 90zM359 -192h-129v127h129v-127z" />
    <glyph glyph-name="uni1EA7" unicode="&#x1ea7;" horiz-adv-x="593" 
d="M479 823l91 -125h-105l-123 125h137zM393 585l-97 93l-98 -93l-64 66l88 79h148l88 -79zM297 545c155 0 251 -79 251 -208v-337h-133v58h-2c-32 -45 -100 -73 -179 -73c-118 0 -198 64 -198 158c0 98 64 146 213 171c119 21 146 30 146 56c0 35 -37 56 -94 56
c-68 0 -120 -37 -132 -95l-140 29c21 110 130 185 268 185zM407 197v64h-2c-13 -19 -41 -30 -113 -44c-87 -17 -118 -33 -118 -64c0 -32 26 -46 82 -46c86 0 151 39 151 90z" />
    <glyph glyph-name="uni1EA9" unicode="&#x1ea9;" horiz-adv-x="593" 
d="M483 855c59 0 108 -31 108 -76c0 -35 -25 -61 -74 -73v-17h-77v51c44 6 73 12 73 29c0 14 -14 22 -39 22c-23 0 -43 -8 -76 -23l-26 62c41 17 74 25 111 25zM393 585l-97 93l-98 -93l-64 66l88 79h148l88 -79zM297 545c155 0 251 -79 251 -208v-337h-133v58h-2
c-32 -45 -100 -73 -179 -73c-118 0 -198 64 -198 158c0 98 64 146 213 171c119 21 146 30 146 56c0 35 -37 56 -94 56c-68 0 -120 -37 -132 -95l-140 29c21 110 130 185 268 185zM407 197v64h-2c-13 -19 -41 -30 -113 -44c-87 -17 -118 -33 -118 -64c0 -32 26 -46 82 -46
c86 0 151 39 151 90z" />
    <glyph glyph-name="uni1EAB" unicode="&#x1eab;" horiz-adv-x="593" 
d="M233 796c-20 0 -32 -11 -37 -34h-62c4 71 41 111 97 111s94 -36 130 -36c20 0 32 10 36 31h63c-4 -71 -42 -110 -97 -110s-94 38 -130 38zM136 651l88 79h147l88 -79l-64 -66l-97 93l-98 -93zM297 545c155 0 251 -79 251 -208v-337h-133v58h-2c-32 -45 -100 -73 -179 -73
c-118 0 -198 64 -198 158c0 98 64 146 213 171c119 21 146 30 146 56c0 35 -37 56 -94 56c-68 0 -120 -37 -132 -95l-140 29c21 110 130 185 268 185zM407 197v64h-2c-13 -19 -41 -30 -113 -44c-87 -17 -118 -33 -118 -64c0 -32 26 -46 82 -46c86 0 151 39 151 90z" />
    <glyph glyph-name="adieresis" unicode="&#xe4;" horiz-adv-x="593" 
d="M253 595h-130v128h130v-128zM470 595h-130v128h130v-128zM234 -15c-118 0 -198 64 -198 158c0 98 64 146 213 171c119 21 146 30 146 56c0 35 -37 56 -94 56c-68 0 -120 -37 -132 -95l-140 29c21 110 130 185 268 185c155 0 251 -79 251 -208v-337h-133v58h-2
c-32 -45 -100 -73 -179 -73zM256 107c86 0 151 39 151 90v64h-2c-13 -19 -41 -30 -113 -44c-87 -17 -118 -33 -118 -64c0 -32 26 -46 82 -46z" />
    <glyph glyph-name="uni01DF" unicode="&#x1df;" horiz-adv-x="593" 
d="M471 763h-349v86h349v-86zM253 595h-130v128h130v-128zM470 595h-130v128h130v-128zM234 -15c-118 0 -198 64 -198 158c0 98 64 146 213 171c119 21 146 30 146 56c0 35 -37 56 -94 56c-68 0 -120 -37 -132 -95l-140 29c21 110 130 185 268 185c155 0 251 -79 251 -208
v-337h-133v58h-2c-32 -45 -100 -73 -179 -73zM256 107c86 0 151 39 151 90v64h-2c-13 -19 -41 -30 -113 -44c-87 -17 -118 -33 -118 -64c0 -32 26 -46 82 -46z" />
    <glyph glyph-name="uni1EA1" unicode="&#x1ea1;" horiz-adv-x="593" 
d="M234 -15c-118 0 -198 64 -198 158c0 98 64 146 213 171c119 21 146 30 146 56c0 35 -37 56 -94 56c-68 0 -120 -37 -132 -95l-140 29c21 110 130 185 268 185c155 0 251 -79 251 -208v-337h-133v58h-2c-32 -45 -100 -73 -179 -73zM256 107c86 0 151 39 151 90v64h-2
c-13 -19 -41 -30 -113 -44c-87 -17 -118 -33 -118 -64c0 -32 26 -46 82 -46zM359 -192h-129v127h129v-127z" />
    <glyph glyph-name="agrave" unicode="&#xe0;" horiz-adv-x="593" 
d="M374 605h-117l-137 138h153zM234 -15c-118 0 -198 64 -198 158c0 98 64 146 213 171c119 21 146 30 146 56c0 35 -37 56 -94 56c-68 0 -120 -37 -132 -95l-140 29c21 110 130 185 268 185c155 0 251 -79 251 -208v-337h-133v58h-2c-32 -45 -100 -73 -179 -73zM256 107
c86 0 151 39 151 90v64h-2c-13 -19 -41 -30 -113 -44c-87 -17 -118 -33 -118 -64c0 -32 26 -46 82 -46z" />
    <glyph glyph-name="uni1EA3" unicode="&#x1ea3;" horiz-adv-x="593" 
d="M291 708c-25 0 -48 -9 -85 -25l-28 69c45 19 82 28 123 28c66 0 120 -35 120 -85c0 -38 -28 -67 -82 -80v-20h-86v57c50 6 82 13 82 32c0 15 -17 24 -44 24zM297 545c155 0 251 -79 251 -208v-337h-133v58h-2c-32 -45 -100 -73 -179 -73c-118 0 -198 64 -198 158
c0 98 64 146 213 171c119 21 146 30 146 56c0 35 -37 56 -94 56c-68 0 -120 -37 -132 -95l-140 29c21 110 130 185 268 185zM407 197v64h-2c-13 -19 -41 -30 -113 -44c-87 -17 -118 -33 -118 -64c0 -32 26 -46 82 -46c86 0 151 39 151 90z" />
    <glyph glyph-name="amacron" unicode="&#x101;" horiz-adv-x="593" 
d="M471 605h-349v86h349v-86zM234 -15c-118 0 -198 64 -198 158c0 98 64 146 213 171c119 21 146 30 146 56c0 35 -37 56 -94 56c-68 0 -120 -37 -132 -95l-140 29c21 110 130 185 268 185c155 0 251 -79 251 -208v-337h-133v58h-2c-32 -45 -100 -73 -179 -73zM256 107
c86 0 151 39 151 90v64h-2c-13 -19 -41 -30 -113 -44c-87 -17 -118 -33 -118 -64c0 -32 26 -46 82 -46z" />
    <glyph glyph-name="aogonek" unicode="&#x105;" horiz-adv-x="593" 
d="M539 -103l37 -81c-35 -19 -69 -28 -108 -28c-66 0 -107 32 -107 89c0 46 27 86 83 123h-29v58h-2c-32 -45 -100 -73 -179 -73c-118 0 -198 64 -198 158c0 98 64 146 213 171c119 21 146 30 146 56c0 35 -37 56 -94 56c-68 0 -120 -37 -132 -95l-140 29
c21 110 130 185 268 185c155 0 251 -79 251 -208v-337h-19c-45 -29 -73 -63 -73 -93c0 -19 10 -28 29 -28c16 0 35 6 54 18zM407 197v64h-2c-13 -19 -41 -30 -113 -44c-87 -17 -118 -33 -118 -64c0 -32 26 -46 82 -46c86 0 151 39 151 90z" />
    <glyph glyph-name="aring" unicode="&#xe5;" horiz-adv-x="593" 
d="M414 527c85 -31 134 -98 134 -190v-337h-133v58h-2c-32 -45 -100 -73 -179 -73c-118 0 -198 64 -198 158c0 98 64 146 213 171c119 21 146 30 146 56c0 35 -37 56 -94 56c-68 0 -120 -37 -132 -95l-140 29c15 76 72 136 151 165c-21 23 -34 53 -34 88
c0 77 64 134 150 134c87 0 151 -57 151 -134c0 -34 -12 -64 -33 -86zM296 681c-40 0 -68 -28 -68 -68s28 -68 68 -68c41 0 69 28 69 68s-28 68 -69 68zM407 197v64h-2c-13 -19 -41 -30 -113 -44c-87 -17 -118 -33 -118 -64c0 -32 26 -46 82 -46c86 0 151 39 151 90z" />
    <glyph glyph-name="aringacute" unicode="&#x1fb;" horiz-adv-x="593" 
d="M414 527c85 -31 134 -98 134 -190v-337h-133v58h-2c-32 -45 -100 -73 -179 -73c-118 0 -198 64 -198 158c0 98 64 146 213 171c119 21 146 30 146 56c0 35 -37 56 -94 56c-68 0 -120 -37 -132 -95l-140 29c15 76 72 136 151 165c-21 23 -34 53 -34 88c0 53 30 96 77 118
l97 133h153l-123 -125c58 -18 97 -66 97 -126c0 -34 -12 -64 -33 -86zM296 545c41 0 69 28 69 68s-28 68 -69 68c-40 0 -68 -28 -68 -68s28 -68 68 -68zM407 197v64h-2c-13 -19 -41 -30 -113 -44c-87 -17 -118 -33 -118 -64c0 -32 26 -46 82 -46c86 0 151 39 151 90z" />
    <glyph glyph-name="atilde" unicode="&#xe3;" horiz-adv-x="593" 
d="M376 600c-66 0 -112 40 -155 40c-23 0 -38 -11 -43 -35h-74c5 74 48 117 115 117s112 -39 155 -39c23 0 38 11 43 34h74c-4 -75 -49 -117 -115 -117zM234 -15c-118 0 -198 64 -198 158c0 98 64 146 213 171c119 21 146 30 146 56c0 35 -37 56 -94 56
c-68 0 -120 -37 -132 -95l-140 29c21 110 130 185 268 185c155 0 251 -79 251 -208v-337h-133v58h-2c-32 -45 -100 -73 -179 -73zM256 107c86 0 151 39 151 90v64h-2c-13 -19 -41 -30 -113 -44c-87 -17 -118 -33 -118 -64c0 -32 26 -46 82 -46z" />
    <glyph glyph-name="ae" unicode="&#xe6;" horiz-adv-x="990" 
d="M961 260v-42h-423c5 -70 62 -113 149 -113c61 0 109 23 160 80l90 -92c-66 -72 -147 -108 -248 -108c-96 0 -174 28 -226 90c-50 -60 -123 -90 -223 -90c-126 0 -204 64 -204 157c0 223 351 140 351 229c0 34 -32 55 -91 55c-65 0 -116 -35 -129 -94l-138 30
c22 108 131 183 267 183c79 0 146 -24 190 -74c50 49 117 74 192 74c165 0 283 -117 283 -285zM540 322h278c-7 63 -63 103 -137 103c-78 0 -134 -39 -141 -103zM399 195v66h-2c-36 -58 -224 -32 -224 -109c0 -32 27 -46 81 -46c82 0 145 40 145 89z" />
    <glyph glyph-name="aeacute" unicode="&#x1fd;" horiz-adv-x="990" 
d="M520 728h153l-136 -138h-118zM961 260v-42h-423c5 -70 62 -113 149 -113c61 0 109 23 160 80l90 -92c-66 -72 -147 -108 -248 -108c-96 0 -174 28 -226 90c-50 -60 -123 -90 -223 -90c-126 0 -204 64 -204 157c0 223 351 140 351 229c0 34 -32 55 -91 55
c-65 0 -116 -35 -129 -94l-138 30c22 108 131 183 267 183c79 0 146 -24 190 -74c50 49 117 74 192 74c165 0 283 -117 283 -285zM539 322h279c-7 63 -63 103 -137 103c-78 0 -134 -39 -142 -103zM399 195v66h-2c-36 -58 -224 -32 -224 -109c0 -32 27 -46 81 -46
c82 0 145 40 145 89z" />
    <glyph glyph-name="b" unicode="b" horiz-adv-x="684" 
d="M368 -15c-77 0 -139 23 -179 67h-2v-52h-137v730h148v-242h2c41 37 102 57 173 57c162 0 282 -120 282 -280c0 -164 -119 -280 -287 -280zM349 116c96 0 158 59 158 149c0 89 -64 150 -158 150c-83 0 -151 -52 -151 -115v-67c0 -65 67 -117 151 -117z" />
    <glyph glyph-name="uni1E05" unicode="&#x1e05;" horiz-adv-x="684" 
d="M368 -15c-77 0 -139 23 -179 67h-2v-52h-137v730h148v-242h2c41 37 102 57 173 57c161 0 282 -120 282 -280c0 -164 -119 -280 -287 -280zM349 116c96 0 158 59 158 149c0 89 -64 150 -158 150c-83 0 -151 -53 -151 -115v-67c0 -65 67 -117 151 -117zM421 -192h-129v127
h129v-127z" />
    <glyph glyph-name="c" unicode="c" horiz-adv-x="627" 
d="M327 -15c-175 0 -298 120 -298 280s123 280 298 280c139 0 245 -74 276 -186l-138 -40c-18 58 -65 96 -138 96c-94 0 -150 -61 -150 -150s56 -150 150 -150c73 0 118 34 138 96l138 -40c-31 -112 -137 -186 -276 -186z" />
    <glyph glyph-name="cacute" unicode="&#x107;" horiz-adv-x="627" 
d="M369 605h-118l101 138h153zM327 -15c-175 0 -298 120 -298 280s123 280 298 280c139 0 245 -74 276 -186l-138 -40c-18 58 -65 96 -138 96c-94 0 -150 -61 -150 -150s56 -150 150 -150c73 0 118 34 138 96l138 -40c-31 -112 -137 -186 -276 -186z" />
    <glyph glyph-name="ccaron" unicode="&#x10d;" horiz-adv-x="627" 
d="M489 674l-88 -79h-148l-88 79l64 66l98 -93l97 93zM327 115c73 0 118 34 138 96l138 -40c-31 -112 -137 -186 -276 -186c-175 0 -298 120 -298 280s123 280 298 280c139 0 245 -74 276 -186l-138 -40c-18 58 -65 96 -138 96c-94 0 -150 -61 -150 -150s56 -150 150 -150z
" />
    <glyph glyph-name="ccedilla" unicode="&#xe7;" horiz-adv-x="627" 
d="M327 115c73 0 118 34 138 96l138 -40c-29 -105 -124 -177 -251 -185l-29 -43c10 3 21 4 32 4c67 0 114 -37 114 -95c0 -67 -52 -111 -132 -111c-43 0 -88 15 -124 40l47 67c25 -18 47 -27 71 -27c30 0 48 14 48 36c0 18 -19 30 -46 30c-20 0 -38 -6 -55 -19l-59 25l58 95
c-148 21 -248 133 -248 277c0 160 123 280 298 280c139 0 245 -74 276 -186l-138 -40c-18 58 -65 96 -138 96c-94 0 -150 -61 -150 -150s56 -150 150 -150z" />
    <glyph glyph-name="ccircumflex" unicode="&#x109;" horiz-adv-x="627" 
d="M424 585l-97 93l-98 -93l-64 66l88 79h148l88 -79zM327 115c73 0 118 34 138 96l138 -40c-31 -112 -137 -186 -276 -186c-175 0 -298 120 -298 280s123 280 298 280c139 0 245 -74 276 -186l-138 -40c-18 58 -65 96 -138 96c-94 0 -150 -61 -150 -150s56 -150 150 -150z
" />
    <glyph glyph-name="cdotaccent" unicode="&#x10b;" horiz-adv-x="627" 
d="M391 605h-129v127h129v-127zM327 -15c-175 0 -298 120 -298 280s123 280 298 280c139 0 245 -74 276 -186l-138 -40c-18 58 -65 96 -138 96c-94 0 -150 -61 -150 -150s56 -150 150 -150c73 0 118 34 138 96l138 -40c-31 -112 -137 -186 -276 -186z" />
    <glyph glyph-name="d" unicode="d" horiz-adv-x="684" 
d="M315 -15c-167 0 -286 116 -286 280c0 160 120 280 281 280c72 0 133 -20 174 -57h2v242h148v-730h-137v52h-2c-40 -44 -102 -67 -180 -67zM335 116c84 0 151 52 151 117v67c0 63 -69 115 -151 115c-95 0 -158 -61 -158 -150c0 -90 62 -149 158 -149z" />
    <glyph glyph-name="eth" unicode="&#xf0;" horiz-adv-x="657" 
d="M576 693l-108 -31c98 -121 160 -257 160 -385c0 -173 -124 -292 -301 -292c-172 0 -298 118 -298 280c0 161 121 280 284 280c57 0 102 -14 137 -39h2c-23 42 -51 82 -90 125l-139 -41l-18 57l110 32c-29 29 -64 60 -105 94v2h151c23 -21 44 -42 64 -64l133 38zM328 115
c89 0 151 61 151 150s-62 150 -151 150s-151 -61 -151 -150s62 -150 151 -150z" />
    <glyph glyph-name="dcaron" unicode="&#x10f;" horiz-adv-x="817" 
d="M315 -15c-167 0 -286 116 -286 280c0 160 120 280 281 280c72 0 133 -20 174 -57h2v242h148v-730h-137v52h-2c-40 -44 -102 -67 -180 -67zM674 491v60c33 9 43 24 43 59h-48v120h133v-106c0 -79 -44 -124 -128 -133zM335 116c84 0 151 52 151 117v67
c0 62 -69 115 -151 115c-95 0 -158 -61 -158 -150c0 -90 61 -149 158 -149z" />
    <glyph glyph-name="dcroat" unicode="&#x111;" horiz-adv-x="684" 
d="M634 676h50v-101h-50v-575h-137v52h-2c-40 -44 -102 -67 -180 -67c-167 0 -286 116 -286 280c0 160 120 280 281 280c72 0 133 -20 174 -57h2v87h-197v101h197v54h148v-54zM486 233v67c0 62 -69 115 -151 115c-95 0 -158 -61 -158 -150c0 -90 61 -149 158 -149
c84 0 151 52 151 117z" />
    <glyph glyph-name="uni1E0D" unicode="&#x1e0d;" horiz-adv-x="684" 
d="M315 -15c-167 0 -286 116 -286 280c0 160 120 280 281 280c72 0 133 -20 174 -57h2v242h148v-730h-137v52h-2c-40 -44 -102 -67 -180 -67zM335 116c84 0 151 52 151 117v67c0 62 -69 115 -151 115c-95 0 -158 -61 -158 -150c0 -90 61 -149 158 -149zM404 -177h-129v127
h129v-127z" />
    <glyph glyph-name="e" unicode="e" horiz-adv-x="634" 
d="M326 -15c-186 0 -297 111 -297 279c0 163 120 281 288 281c178 0 288 -126 288 -285v-42h-430c5 -69 61 -113 150 -113c66 0 112 26 163 79l92 -92c-61 -67 -140 -107 -254 -107zM177 322h284c-7 62 -62 103 -141 103c-80 0 -135 -41 -143 -103z" />
    <glyph glyph-name="eacute" unicode="&#xe9;" horiz-adv-x="634" 
d="M358 605h-118l101 138h153zM326 -15c-186 0 -297 111 -297 279c0 163 120 281 288 281c178 0 288 -126 288 -285v-42h-430c5 -69 61 -113 150 -113c66 0 112 26 163 79l92 -92c-61 -67 -140 -107 -254 -107zM177 322h284c-7 62 -62 103 -141 103
c-80 0 -135 -41 -143 -103z" />
    <glyph glyph-name="ebreve" unicode="&#x115;" horiz-adv-x="634" 
d="M318 595c-92 0 -156 53 -165 139h77c10 -31 43 -50 88 -50s78 19 87 50h78c-10 -86 -72 -139 -165 -139zM326 -15c-186 0 -297 111 -297 279c0 163 120 281 288 281c178 0 288 -126 288 -285v-42h-430c5 -69 61 -113 150 -113c66 0 112 26 163 79l92 -92
c-61 -67 -140 -107 -254 -107zM177 322h284c-7 62 -62 103 -141 103c-80 0 -135 -41 -143 -103z" />
    <glyph glyph-name="ecaron" unicode="&#x11b;" horiz-adv-x="634" 
d="M478 674l-88 -79h-148l-88 79l64 66l98 -93l97 93zM605 260v-42h-430c5 -69 61 -113 150 -113c66 0 112 26 163 79l92 -92c-61 -67 -140 -107 -254 -107c-186 0 -297 111 -297 279c0 163 120 281 288 281c178 0 288 -126 288 -285zM177 322h284c-7 62 -62 103 -141 103
c-80 0 -135 -41 -143 -103z" />
    <glyph glyph-name="uni0229" unicode="&#x229;" horiz-adv-x="634" 
d="M605 260v-42h-430c5 -69 61 -113 150 -113c66 0 112 26 163 79l92 -92c-56 -62 -128 -101 -228 -106l-29 -43c10 3 21 4 32 4c67 0 114 -37 114 -95c0 -67 -52 -111 -132 -111c-43 0 -88 15 -124 40l47 67c25 -18 47 -27 71 -27c30 0 48 14 48 36c0 18 -19 30 -46 30
c-20 0 -38 -6 -55 -19l-59 25l58 95c-156 18 -248 123 -248 276c0 163 120 281 288 281c178 0 288 -126 288 -285zM177 322h284c-7 62 -62 103 -141 103c-80 0 -135 -41 -143 -103z" />
    <glyph glyph-name="ecircumflex" unicode="&#xea;" horiz-adv-x="634" 
d="M413 585l-97 93l-98 -93l-64 66l88 79h148l88 -79zM605 260v-42h-430c5 -69 61 -113 150 -113c66 0 112 26 163 79l92 -92c-61 -67 -140 -107 -254 -107c-186 0 -297 111 -297 279c0 163 120 281 288 281c178 0 288 -126 288 -285zM177 322h284c-7 62 -62 103 -141 103
c-80 0 -135 -41 -143 -103z" />
    <glyph glyph-name="uni1EBF" unicode="&#x1ebf;" horiz-adv-x="634" 
d="M543 823h138l-122 -125h-107zM413 585l-97 93l-98 -93l-64 66l88 79h148l88 -79zM317 545c178 0 288 -126 288 -285v-42h-430c5 -69 61 -113 150 -113c66 0 112 26 163 79l92 -92c-61 -67 -140 -107 -254 -107c-186 0 -297 111 -297 279c0 163 120 281 288 281zM177 322
h284c-7 62 -62 103 -141 103c-80 0 -135 -41 -143 -103z" />
    <glyph glyph-name="uni1EC7" unicode="&#x1ec7;" horiz-adv-x="634" 
d="M413 585l-97 93l-98 -93l-64 66l88 79h148l88 -79zM605 260v-42h-430c5 -69 61 -113 150 -113c66 0 112 26 163 79l92 -92c-61 -67 -140 -107 -254 -107c-186 0 -297 111 -297 279c0 163 120 281 288 281c178 0 288 -126 288 -285zM177 322h284c-7 62 -62 103 -141 103
c-80 0 -135 -41 -143 -103zM391 -192h-129v127h129v-127z" />
    <glyph glyph-name="uni1EC1" unicode="&#x1ec1;" horiz-adv-x="634" 
d="M499 823l91 -125h-105l-123 125h137zM413 585l-97 93l-98 -93l-64 66l88 79h148l88 -79zM605 260v-42h-430c5 -69 61 -113 150 -113c66 0 112 26 163 79l92 -92c-61 -67 -140 -107 -254 -107c-186 0 -297 111 -297 279c0 163 120 281 288 281c178 0 288 -126 288 -285z
M177 322h284c-7 62 -62 103 -141 103c-80 0 -135 -41 -143 -103z" />
    <glyph glyph-name="uni1EC3" unicode="&#x1ec3;" horiz-adv-x="634" 
d="M494 791c-23 0 -43 -8 -76 -23l-26 62c41 17 74 25 111 25c59 0 108 -31 108 -76c0 -35 -25 -61 -74 -73v-17h-77v51c44 6 73 12 73 29c0 14 -14 22 -39 22zM413 585l-97 93l-98 -93l-64 66l88 79h148l88 -79zM317 545c178 0 288 -126 288 -285v-42h-430
c5 -69 61 -113 150 -113c66 0 112 26 163 79l92 -92c-61 -67 -140 -107 -254 -107c-186 0 -297 111 -297 279c0 163 120 281 288 281zM177 322h284c-7 62 -62 103 -141 103c-80 0 -135 -41 -143 -103z" />
    <glyph glyph-name="uni1EC5" unicode="&#x1ec5;" horiz-adv-x="634" 
d="M253 796c-20 0 -32 -11 -37 -34h-62c4 71 41 111 97 111s94 -36 130 -36c20 0 32 10 36 31h63c-4 -71 -42 -110 -97 -110s-94 38 -130 38zM156 651l88 79h147l88 -79l-64 -66l-97 93l-98 -93zM605 260v-42h-430c5 -69 61 -113 150 -113c66 0 112 26 163 79l92 -92
c-61 -67 -140 -107 -254 -107c-186 0 -297 111 -297 279c0 163 120 281 288 281c178 0 288 -126 288 -285zM177 322h284c-7 62 -62 103 -141 103c-80 0 -135 -41 -143 -103z" />
    <glyph glyph-name="edieresis" unicode="&#xeb;" horiz-adv-x="634" 
d="M273 595h-130v128h130v-128zM490 595h-130v128h130v-128zM326 -15c-186 0 -297 111 -297 279c0 163 120 281 288 281c178 0 288 -126 288 -285v-42h-430c5 -69 61 -113 150 -113c66 0 112 26 163 79l92 -92c-61 -67 -140 -107 -254 -107zM177 322h284
c-7 62 -62 103 -141 103c-80 0 -135 -41 -143 -103z" />
    <glyph glyph-name="edotaccent" unicode="&#x117;" horiz-adv-x="634" 
d="M381 605h-129v127h129v-127zM326 -15c-186 0 -297 111 -297 279c0 163 120 281 288 281c178 0 288 -126 288 -285v-42h-430c5 -69 61 -113 150 -113c66 0 112 26 163 79l92 -92c-61 -67 -140 -107 -254 -107zM177 322h284c-7 62 -62 103 -141 103
c-80 0 -135 -41 -143 -103z" />
    <glyph glyph-name="uni1EB9" unicode="&#x1eb9;" horiz-adv-x="634" 
d="M326 -15c-186 0 -297 111 -297 279c0 163 120 281 288 281c178 0 288 -126 288 -285v-42h-430c5 -69 61 -113 150 -113c66 0 112 26 163 79l92 -92c-61 -67 -140 -107 -254 -107zM177 322h284c-7 62 -62 103 -141 103c-80 0 -135 -41 -143 -103zM391 -192h-129v127h129
v-127z" />
    <glyph glyph-name="egrave" unicode="&#xe8;" horiz-adv-x="634" 
d="M394 605h-117l-137 138h153zM326 -15c-186 0 -297 111 -297 279c0 163 120 281 288 281c178 0 288 -126 288 -285v-42h-430c5 -69 61 -113 150 -113c66 0 112 26 163 79l92 -92c-61 -67 -140 -107 -254 -107zM177 322h284c-7 62 -62 103 -141 103
c-80 0 -135 -41 -143 -103z" />
    <glyph glyph-name="uni1EBB" unicode="&#x1ebb;" horiz-adv-x="634" 
d="M311 708c-25 0 -48 -9 -85 -25l-28 69c45 19 82 28 123 28c66 0 120 -35 120 -85c0 -38 -28 -67 -82 -80v-20h-86v57h1c49 6 81 13 81 32c0 15 -17 24 -44 24zM605 260v-42h-430c5 -69 61 -113 150 -113c66 0 112 26 163 79l92 -92c-61 -67 -140 -107 -254 -107
c-186 0 -297 111 -297 279c0 163 120 281 288 281c178 0 288 -126 288 -285zM177 322h284c-7 62 -62 103 -141 103c-80 0 -135 -41 -143 -103z" />
    <glyph glyph-name="emacron" unicode="&#x113;" horiz-adv-x="634" 
d="M491 605h-349v86h349v-86zM326 -15c-186 0 -297 111 -297 279c0 163 120 281 288 281c178 0 288 -126 288 -285v-42h-430c5 -69 61 -113 150 -113c66 0 112 26 163 79l92 -92c-61 -67 -140 -107 -254 -107zM177 322h284c-7 62 -62 103 -141 103c-80 0 -135 -41 -143 -103
z" />
    <glyph glyph-name="eogonek" unicode="&#x119;" horiz-adv-x="634" 
d="M605 260v-42h-430c5 -69 61 -113 150 -113c66 0 112 26 163 79l92 -92c-39 -43 -85 -75 -143 -92c-45 -29 -73 -63 -73 -93c0 -19 10 -28 29 -28c16 0 35 6 54 18l37 -81c-35 -19 -69 -28 -108 -28c-66 0 -107 32 -107 89c0 40 20 75 62 108h-5c-186 0 -297 111 -297 279
c0 163 120 281 288 281c178 0 288 -126 288 -285zM177 322h284c-7 62 -62 103 -141 103c-80 0 -135 -41 -143 -103z" />
    <glyph glyph-name="uni0258" unicode="&#x258;" horiz-adv-x="634" 
d="M308 -15c-114 0 -193 40 -254 107l92 92c51 -53 97 -79 163 -79c90 0 145 44 150 113h-430v42c0 159 110 285 288 285c168 0 288 -118 288 -281c0 -168 -111 -279 -297 -279zM173 322h284c-8 62 -63 103 -142 103c-80 0 -135 -41 -142 -103z" />
    <glyph glyph-name="uni1EBD" unicode="&#x1ebd;" horiz-adv-x="634" 
d="M396 600c-66 0 -112 40 -155 40c-23 0 -38 -11 -43 -35h-74c5 74 48 117 115 117s112 -39 155 -39c23 0 38 11 43 34h74c-4 -75 -49 -117 -115 -117zM326 -15c-186 0 -297 111 -297 279c0 163 120 281 288 281c178 0 288 -126 288 -285v-42h-430c5 -69 61 -113 150 -113
c66 0 112 26 163 79l92 -92c-61 -67 -140 -107 -254 -107zM177 322h284c-7 62 -62 103 -141 103c-80 0 -135 -41 -143 -103z" />
    <glyph glyph-name="uni0259" unicode="&#x259;" horiz-adv-x="634" 
d="M317 -15c-178 0 -288 126 -288 285v42h430c-5 69 -60 113 -150 113c-66 0 -112 -28 -163 -79l-90 93c64 63 138 106 252 106c186 0 297 -111 297 -279c0 -163 -120 -281 -288 -281zM315 105c79 0 134 41 142 103h-284c7 -62 62 -103 142 -103z" />
    <glyph glyph-name="f" unicode="f" horiz-adv-x="483" 
d="M280 0h-148v404h-127v126h127v54c0 93 65 150 174 150h139v-127h-121c-29 0 -44 -14 -44 -41v-36h198v-126h-198v-404z" />
    <glyph glyph-name="g" unicode="g" horiz-adv-x="673" 
d="M343 -240c-122 0 -221 44 -284 126l106 88c55 -65 100 -87 178 -87c82 0 144 53 144 125v38h-2c-37 -41 -98 -64 -172 -64c-162 0 -284 118 -284 279c0 155 119 275 279 275c76 0 138 -22 177 -62h2v52h142v-516c0 -150 -118 -254 -286 -254zM331 116
c84 0 150 52 150 117v62c0 61 -67 115 -144 115c-97 0 -160 -59 -160 -145c0 -93 59 -149 154 -149z" />
    <glyph glyph-name="gbreve" unicode="&#x11f;" horiz-adv-x="673" 
d="M322 591c-93 0 -156 53 -166 139h78c10 -31 43 -50 88 -50c44 0 77 19 86 50h79c-11 -86 -73 -139 -165 -139zM343 -240c-122 0 -221 44 -284 126l106 88c55 -65 100 -87 178 -87c82 0 144 53 144 125v38h-2c-37 -41 -98 -64 -172 -64c-162 0 -284 118 -284 279
c0 155 119 275 279 275c76 0 138 -22 177 -62h2v52h142v-516c0 -150 -118 -254 -286 -254zM331 116c84 0 150 52 150 117v62c0 61 -67 115 -144 115c-97 0 -160 -59 -160 -145c0 -93 59 -149 154 -149z" />
    <glyph glyph-name="gcircumflex" unicode="&#x11d;" horiz-adv-x="673" 
d="M418 581l-98 93l-98 -93l-64 66l88 79h148l88 -79zM487 478v52h142v-516c0 -150 -118 -254 -286 -254c-122 0 -221 44 -284 126l106 88c55 -65 100 -87 178 -87c82 0 144 53 144 125v38h-2c-37 -41 -98 -64 -172 -64c-162 0 -284 118 -284 279c0 155 119 275 279 275
c76 0 138 -22 177 -62h2zM481 233v62c0 61 -67 115 -144 115c-97 0 -160 -59 -160 -145c0 -93 59 -149 154 -149c84 0 150 52 150 117z" />
    <glyph glyph-name="uni0123" unicode="&#x123;" horiz-adv-x="673" 
d="M386 835v-58c-36 -10 -47 -25 -47 -59h53v-118h-146v104c0 78 47 122 140 131zM343 -240c-122 0 -221 44 -284 126l106 88c55 -65 100 -87 178 -87c82 0 144 53 144 125v38h-2c-37 -41 -98 -64 -172 -64c-162 0 -284 118 -284 279c0 155 119 275 279 275
c76 0 138 -22 177 -62h2v52h142v-516c0 -150 -118 -254 -286 -254zM331 116c84 0 150 52 150 117v62c0 61 -67 115 -144 115c-97 0 -160 -59 -160 -145c0 -93 59 -149 154 -149z" />
    <glyph glyph-name="gdotaccent" unicode="&#x121;" horiz-adv-x="673" 
d="M384 600h-129v127h129v-127zM343 -240c-122 0 -221 44 -284 126l106 88c55 -65 100 -87 178 -87c82 0 144 53 144 125v38h-2c-37 -41 -98 -64 -172 -64c-162 0 -284 118 -284 279c0 155 119 275 279 275c76 0 138 -22 177 -62h2v52h142v-516c0 -150 -118 -254 -286 -254z
M331 116c84 0 150 52 150 117v62c0 61 -67 115 -144 115c-97 0 -160 -59 -160 -145c0 -93 59 -149 154 -149z" />
    <glyph glyph-name="h" unicode="h" horiz-adv-x="672" 
d="M198 0h-148v730h148v-250h2c44 42 105 65 174 65c152 0 254 -99 254 -242v-303h-148v283c0 81 -52 130 -138 130s-144 -53 -144 -130v-283z" />
    <glyph glyph-name="hbar" unicode="&#x127;" horiz-adv-x="672" 
d="M374 545c152 0 254 -99 254 -242v-303h-148v283c0 80 -52 130 -138 130s-144 -53 -144 -130v-283h-148v575h-50v101h50v54h148v-54h197v-101h-197v-95h2c44 42 105 65 174 65z" />
    <glyph glyph-name="hcircumflex" unicode="&#x125;" horiz-adv-x="672" 
d="M453 740l-97 93l-98 -93l-64 66l88 79h148l88 -79zM374 545c152 0 254 -99 254 -242v-303h-148v283c0 80 -52 130 -138 130s-144 -53 -144 -130v-283h-148v730h148v-250h2c44 42 105 65 174 65z" />
    <glyph glyph-name="uni1E25" unicode="&#x1e25;" horiz-adv-x="672" 
d="M198 0h-148v730h148v-250h2c44 42 105 65 174 65c152 0 254 -99 254 -242v-303h-148v283c0 80 -52 130 -138 130s-144 -53 -144 -130v-283zM404 -177h-129v127h129v-127z" />
    <glyph glyph-name="i" unicode="i" horiz-adv-x="246" 
d="M199 617h-153v148h153v-148zM197 0h-148v530h148v-530z" />
    <glyph glyph-name="dotlessi" unicode="&#x131;" horiz-adv-x="246" 
d="M197 0h-148v530h148v-530z" />
    <glyph glyph-name="iacute" unicode="&#xed;" horiz-adv-x="246" 
d="M164 590h-118l101 138h153zM197 0h-148v530h148v-530z" />
    <glyph glyph-name="ibreve" unicode="&#x12d;" horiz-adv-x="246" 
d="M124 580c-92 0 -156 53 -165 139h77c10 -31 43 -50 88 -50s78 19 87 50h78c-10 -86 -72 -139 -165 -139zM197 0h-148v530h148v-530z" />
    <glyph glyph-name="uni01D0" unicode="&#x1d0;" horiz-adv-x="246" 
d="M219 725l65 -66l-88 -79h-148l-88 79l64 66l98 -93zM197 0h-148v530h148v-530z" />
    <glyph glyph-name="icircumflex" unicode="&#xee;" horiz-adv-x="246" 
d="M48 715h148l88 -79l-65 -66l-97 93l-98 -93l-64 66zM197 0h-148v530h148v-530z" />
    <glyph glyph-name="idieresis" unicode="&#xef;" horiz-adv-x="246" 
d="M90 580h-130v128h130v-128zM287 580h-131v128h131v-128zM197 0h-148v530h148v-530z" />
    <glyph glyph-name="i.loclTRK" horiz-adv-x="246" 
d="M199 617h-153v148h153v-148zM197 0h-148v530h148v-530z" />
    <glyph glyph-name="uni1ECB" unicode="&#x1ecb;" horiz-adv-x="246" 
d="M199 617h-153v148h153v-148zM197 0h-148v530h148v-530zM188 -177h-129v127h129v-127z" />
    <glyph glyph-name="igrave" unicode="&#xec;" horiz-adv-x="246" 
d="M200 590h-117l-137 138h153zM197 0h-148v530h148v-530z" />
    <glyph glyph-name="uni1EC9" unicode="&#x1ec9;" horiz-adv-x="246" 
d="M127 765c66 0 120 -35 120 -85c0 -38 -28 -67 -82 -80v-20h-86v57c50 6 82 13 82 32c0 15 -17 24 -44 24c-25 0 -48 -9 -85 -25l-28 69c45 19 82 28 123 28zM197 0h-148v530h148v-530z" />
    <glyph glyph-name="imacron" unicode="&#x12b;" horiz-adv-x="246" 
d="M297 590h-349v86h349v-86zM197 0h-148v530h148v-530z" />
    <glyph glyph-name="iogonek" unicode="&#x12f;" horiz-adv-x="246" 
d="M46 765h153v-148h-153v148zM178 -103l37 -81c-35 -19 -69 -28 -108 -28c-66 0 -107 32 -107 89c0 46 27 86 83 123h-34v530h148v-530h-29c-45 -29 -73 -63 -73 -93c0 -19 9 -28 29 -28c16 0 35 6 54 18z" />
    <glyph glyph-name="itilde" unicode="&#x129;" horiz-adv-x="246" 
d="M202 585c-66 0 -112 40 -155 40c-23 0 -38 -11 -43 -35h-74c5 74 48 117 115 117s112 -39 155 -39c23 0 38 11 43 34h74c-4 -75 -49 -117 -115 -117zM197 0h-148v530h148v-530z" />
    <glyph glyph-name="j" unicode="j" horiz-adv-x="254" 
d="M207 617h-153v148h153v-148zM11 -206h-92v135h80c43 0 58 16 58 54v547h148v-549c0 -131 -53 -187 -194 -187z" />
    <glyph glyph-name="uni0237" unicode="&#x237;" horiz-adv-x="254" 
d="M11 -206h-92v135h80c43 0 58 16 58 54v547h148v-549c0 -131 -53 -187 -194 -187z" />
    <glyph glyph-name="jcircumflex" unicode="&#x135;" horiz-adv-x="254" 
d="M57 715h148l88 -79l-65 -66l-97 93l-98 -93l-64 66zM57 -17v547h148v-549c0 -131 -53 -187 -194 -187h-92v135h80c43 0 58 16 58 54z" />
    <glyph glyph-name="k" unicode="k" horiz-adv-x="656" 
d="M198 0h-148v730h148v-413h2l236 213h200l-249 -216l259 -314h-185l-178 227h-2l-83 -76v-151z" />
    <glyph glyph-name="uni0137" unicode="&#x137;" horiz-adv-x="656" 
d="M198 0h-148v730h148v-413h2l236 213h200l-249 -216l259 -314h-185l-178 227h-2l-83 -76v-151zM272 -289v60c33 9 42 24 42 59h-47v120h132v-106c0 -79 -43 -124 -127 -133z" />
    <glyph glyph-name="kgreenlandic" unicode="&#x138;" horiz-adv-x="656" 
d="M198 0h-148v530h148v-213h2l236 213h200l-249 -216l259 -314h-181l-181 228h-2l-84 -77v-151z" />
    <glyph glyph-name="l" unicode="l" horiz-adv-x="246" 
d="M197 0h-148v730h148v-730z" />
    <glyph glyph-name="lacute" unicode="&#x13a;" horiz-adv-x="246" 
d="M165 790h-118l101 138h153zM197 0h-148v730h148v-730z" />
    <glyph glyph-name="lcaron" unicode="&#x13e;" horiz-adv-x="395" 
d="M197 0h-148v730h148v-730zM252 491v60c33 9 43 24 43 59h-48v120h133v-106c0 -79 -44 -124 -128 -133z" />
    <glyph glyph-name="uni013C" unicode="&#x13c;" horiz-adv-x="246" 
d="M197 0h-148v730h148v-730zM63 -289v60c33 9 42 24 42 59h-47v120h132v-106c0 -79 -43 -124 -127 -133z" />
    <glyph glyph-name="ldot" unicode="&#x140;" horiz-adv-x="428" 
d="M197 0h-148v730h148v-730zM417 298h-165v160h165v-160z" />
    <glyph glyph-name="uni1E37" unicode="&#x1e37;" horiz-adv-x="246" 
d="M197 0h-148v730h148v-730zM188 -177h-129v127h129v-127z" />
    <glyph glyph-name="lslash" unicode="&#x142;" horiz-adv-x="379" 
d="M356 569l51 -55l-143 -134v-380h-148v271l-77 -72l-52 55l129 120v356h148v-247z" />
    <glyph glyph-name="m" unicode="m" horiz-adv-x="975" 
d="M193 0h-143v530h130v-51h2c36 40 96 66 163 66c64 0 133 -29 168 -74h2c45 49 107 74 173 74c143 0 242 -93 242 -228v-317h-143v294c0 76 -45 121 -112 121c-71 0 -116 -46 -116 -121v-294h-137v294c0 76 -47 121 -113 121c-71 0 -116 -46 -116 -121v-294z" />
    <glyph glyph-name="n" unicode="n" horiz-adv-x="672" 
d="M198 0h-148v530h143v-50h2c44 42 109 65 179 65c152 0 254 -99 254 -243v-302h-148v283c0 81 -52 130 -138 130s-144 -53 -144 -130v-283z" />
    <glyph glyph-name="nacute" unicode="&#x144;" horiz-adv-x="672" 
d="M394 605h-118l101 138h153zM198 0h-148v530h143v-50h2c44 42 109 65 179 65c152 0 254 -99 254 -243v-302h-148v283c0 80 -52 130 -138 130s-144 -53 -144 -130v-283z" />
    <glyph glyph-name="ncaron" unicode="&#x148;" horiz-adv-x="672" 
d="M515 674l-88 -79h-148l-88 79l64 66l98 -93l97 93zM374 545c152 0 254 -99 254 -243v-302h-148v283c0 80 -52 130 -138 130s-144 -53 -144 -130v-283h-148v530h143v-50h2c44 42 109 65 179 65z" />
    <glyph glyph-name="uni0146" unicode="&#x146;" horiz-adv-x="672" 
d="M198 0h-148v530h143v-50h2c44 42 109 65 179 65c152 0 254 -99 254 -243v-302h-148v283c0 80 -52 130 -138 130s-144 -53 -144 -130v-283zM279 -289v60c33 9 42 24 42 59h-47v120h132v-106c0 -79 -43 -124 -127 -133z" />
    <glyph glyph-name="uni1E45" unicode="&#x1e45;" horiz-adv-x="672" 
d="M417 605h-129v127h129v-127zM198 0h-148v530h143v-50h2c44 42 109 65 179 65c152 0 254 -99 254 -243v-302h-148v283c0 80 -52 130 -138 130s-144 -53 -144 -130v-283z" />
    <glyph glyph-name="uni1E47" unicode="&#x1e47;" horiz-adv-x="672" 
d="M198 0h-148v530h143v-50h2c44 42 109 65 179 65c152 0 254 -99 254 -243v-302h-148v283c0 80 -52 130 -138 130s-144 -53 -144 -130v-283zM404 -177h-129v127h129v-127z" />
    <glyph glyph-name="eng" unicode="&#x14b;" horiz-adv-x="672" 
d="M374 545c152 0 254 -99 254 -243v-337c0 -124 -54 -171 -194 -171h-71v135h70c32 0 47 14 47 48v306c0 81 -52 130 -138 130s-144 -53 -144 -130v-283h-148v530h143v-50h2c44 42 109 65 179 65z" />
    <glyph glyph-name="ntilde" unicode="&#xf1;" horiz-adv-x="672" 
d="M432 600c-66 0 -112 40 -155 40c-23 0 -38 -11 -43 -35h-74c5 74 48 117 115 117s112 -39 155 -39c23 0 38 11 43 34h74c-4 -75 -49 -117 -115 -117zM198 0h-148v530h143v-50h2c44 42 109 65 179 65c152 0 254 -99 254 -243v-302h-148v283c0 80 -52 130 -138 130
s-144 -53 -144 -130v-283z" />
    <glyph glyph-name="o" unicode="o" horiz-adv-x="657" 
d="M328 -15c-174 0 -299 122 -299 280s125 280 299 280c175 0 299 -122 299 -280s-124 -280 -299 -280zM328 115c92 0 151 64 151 150s-59 150 -151 150s-151 -64 -151 -150s59 -150 151 -150z" />
    <glyph glyph-name="oacute" unicode="&#xf3;" horiz-adv-x="657" 
d="M370 605h-118l101 138h153zM328 -15c-174 0 -299 122 -299 280s125 280 299 280c175 0 299 -122 299 -280s-124 -280 -299 -280zM328 115c92 0 151 64 151 150s-59 150 -151 150s-151 -64 -151 -150s59 -150 151 -150z" />
    <glyph glyph-name="obreve" unicode="&#x14f;" horiz-adv-x="657" 
d="M329 595c-92 0 -156 53 -165 139h77c10 -31 43 -50 88 -50s78 19 87 50h78c-10 -86 -72 -139 -165 -139zM328 -15c-174 0 -299 122 -299 280s125 280 299 280c175 0 299 -122 299 -280s-124 -280 -299 -280zM328 115c92 0 151 64 151 150s-59 150 -151 150
s-151 -64 -151 -150s59 -150 151 -150z" />
    <glyph glyph-name="uni01D2" unicode="&#x1d2;" horiz-adv-x="657" 
d="M490 674l-88 -79h-148l-88 79l64 66l98 -93l97 93zM328 545c175 0 299 -122 299 -280s-124 -280 -299 -280c-174 0 -299 122 -299 280s125 280 299 280zM328 115c92 0 151 64 151 150s-59 150 -151 150s-151 -64 -151 -150s59 -150 151 -150z" />
    <glyph glyph-name="ocircumflex" unicode="&#xf4;" horiz-adv-x="657" 
d="M425 585l-97 93l-98 -93l-64 66l88 79h148l88 -79zM328 545c175 0 299 -122 299 -280s-124 -280 -299 -280c-174 0 -299 122 -299 280s125 280 299 280zM328 115c92 0 151 64 151 150s-59 150 -151 150s-151 -64 -151 -150s59 -150 151 -150z" />
    <glyph glyph-name="uni1ED1" unicode="&#x1ed1;" horiz-adv-x="657" 
d="M555 823h138l-122 -125h-107zM425 585l-97 93l-98 -93l-64 66l88 79h148l88 -79zM328 545c175 0 299 -122 299 -280s-124 -280 -299 -280c-174 0 -299 122 -299 280s125 280 299 280zM328 115c92 0 151 64 151 150s-59 150 -151 150s-151 -64 -151 -150s59 -150 151 -150
z" />
    <glyph glyph-name="uni1ED9" unicode="&#x1ed9;" horiz-adv-x="657" 
d="M425 585l-97 93l-98 -93l-64 66l88 79h148l88 -79zM328 545c175 0 299 -122 299 -280s-124 -280 -299 -280c-174 0 -299 122 -299 280s125 280 299 280zM328 115c92 0 151 64 151 150s-59 150 -151 150s-151 -64 -151 -150s59 -150 151 -150zM393 -192h-129v127h129v-127
z" />
    <glyph glyph-name="uni1ED3" unicode="&#x1ed3;" horiz-adv-x="657" 
d="M511 823l91 -125h-105l-123 125h137zM425 585l-97 93l-98 -93l-64 66l88 79h148l88 -79zM328 545c175 0 299 -122 299 -280s-124 -280 -299 -280c-174 0 -299 122 -299 280s125 280 299 280zM328 115c92 0 151 64 151 150s-59 150 -151 150s-151 -64 -151 -150
s59 -150 151 -150z" />
    <glyph glyph-name="uni1ED5" unicode="&#x1ed5;" horiz-adv-x="657" 
d="M506 791c-23 0 -43 -8 -76 -23l-26 62c41 17 74 25 111 25c59 0 108 -31 108 -76c0 -35 -25 -61 -74 -73v-17h-77v51c44 6 73 12 73 29c0 14 -14 22 -39 22zM425 585l-97 93l-98 -93l-64 66l88 79h148l88 -79zM328 545c175 0 299 -122 299 -280s-124 -280 -299 -280
c-174 0 -299 122 -299 280s125 280 299 280zM328 115c92 0 151 64 151 150s-59 150 -151 150s-151 -64 -151 -150s59 -150 151 -150z" />
    <glyph glyph-name="uni1ED7" unicode="&#x1ed7;" horiz-adv-x="657" 
d="M264 796c-20 0 -32 -11 -37 -34h-62c4 71 41 111 97 111s94 -36 130 -36c20 0 32 10 36 31h63c-4 -71 -42 -110 -97 -110s-94 38 -130 38zM167 651l88 79h147l88 -79l-64 -66l-97 93l-98 -93zM328 545c175 0 299 -122 299 -280s-124 -280 -299 -280
c-174 0 -299 122 -299 280s125 280 299 280zM328 115c92 0 151 64 151 150s-59 150 -151 150s-151 -64 -151 -150s59 -150 151 -150z" />
    <glyph glyph-name="odieresis" unicode="&#xf6;" horiz-adv-x="657" 
d="M284 595h-130v128h130v-128zM501 595h-130v128h130v-128zM328 -15c-174 0 -299 122 -299 280s125 280 299 280c175 0 299 -122 299 -280s-124 -280 -299 -280zM328 115c92 0 151 64 151 150s-59 150 -151 150s-151 -64 -151 -150s59 -150 151 -150z" />
    <glyph glyph-name="uni1ECD" unicode="&#x1ecd;" horiz-adv-x="657" 
d="M328 -15c-174 0 -299 122 -299 280s125 280 299 280c175 0 299 -122 299 -280s-124 -280 -299 -280zM328 115c92 0 151 64 151 150s-59 150 -151 150s-151 -64 -151 -150s59 -150 151 -150zM393 -192h-129v127h129v-127z" />
    <glyph glyph-name="ograve" unicode="&#xf2;" horiz-adv-x="657" 
d="M405 605h-117l-137 138h153zM328 -15c-174 0 -299 122 -299 280s125 280 299 280c175 0 299 -122 299 -280s-124 -280 -299 -280zM328 115c92 0 151 64 151 150s-59 150 -151 150s-151 -64 -151 -150s59 -150 151 -150z" />
    <glyph glyph-name="uni1ECF" unicode="&#x1ecf;" horiz-adv-x="657" 
d="M323 708c-25 0 -48 -9 -85 -25l-28 69c45 19 82 28 123 28c66 0 120 -35 120 -85c0 -38 -28 -67 -82 -80v-20h-86v57h1c49 6 81 13 81 32c0 15 -17 24 -44 24zM328 545c175 0 299 -122 299 -280s-124 -280 -299 -280c-174 0 -299 122 -299 280s125 280 299 280zM328 115
c92 0 151 64 151 150s-59 150 -151 150s-151 -64 -151 -150s59 -150 151 -150z" />
    <glyph glyph-name="ohorn" unicode="&#x1a1;" horiz-adv-x="657" 
d="M541 465c54 -50 86 -120 86 -200c0 -160 -127 -280 -299 -280s-299 120 -299 280s127 280 299 280h1v0c62 0 94 -15 142 -15c43 0 56 23 56 98h91c0 -92 -22 -143 -77 -163zM328 115c89 0 151 61 151 150s-62 150 -151 150s-151 -61 -151 -150s62 -150 151 -150z" />
    <glyph glyph-name="uni1EDB" unicode="&#x1edb;" horiz-adv-x="657" 
d="M353 743h153l-136 -138h-118zM541 465c54 -50 86 -120 86 -200c0 -160 -127 -280 -299 -280s-299 120 -299 280s127 280 299 280h1v0c62 0 94 -15 142 -15c43 0 56 23 56 98h91c0 -92 -23 -143 -77 -163zM328 115c89 0 151 61 151 150s-62 150 -151 150
s-151 -61 -151 -150s62 -150 151 -150z" />
    <glyph glyph-name="uni1EE3" unicode="&#x1ee3;" horiz-adv-x="657" 
d="M541 465c54 -50 86 -120 86 -200c0 -160 -127 -280 -299 -280s-299 120 -299 280s127 280 299 280h1v0c62 0 94 -15 142 -15c43 0 56 23 56 98h91c0 -92 -23 -143 -77 -163zM328 115c89 0 151 61 151 150s-62 150 -151 150s-151 -61 -151 -150s62 -150 151 -150z
M393 -192h-129v127h129v-127z" />
    <glyph glyph-name="uni1EDD" unicode="&#x1edd;" horiz-adv-x="657" 
d="M304 743l101 -138h-117l-137 138h153zM541 465c54 -50 86 -120 86 -200c0 -160 -127 -280 -299 -280s-299 120 -299 280s127 280 299 280h1v0c62 0 94 -15 142 -15c43 0 56 23 56 98h91c0 -92 -23 -143 -77 -163zM328 115c89 0 151 61 151 150s-62 150 -151 150
s-151 -61 -151 -150s62 -150 151 -150z" />
    <glyph glyph-name="uni1EDF" unicode="&#x1edf;" horiz-adv-x="657" 
d="M323 708c-25 0 -48 -9 -85 -25l-28 69c45 19 82 28 123 28c66 0 120 -35 120 -85c0 -38 -28 -67 -82 -80v-20h-86v57h1c49 6 81 13 81 32c0 15 -17 24 -44 24zM541 465c54 -50 86 -120 86 -200c0 -160 -127 -280 -299 -280s-299 120 -299 280s127 280 299 280h1v0
c62 0 94 -15 142 -15c43 0 56 23 56 98h91c0 -92 -23 -143 -77 -163zM328 115c89 0 151 61 151 150s-62 150 -151 150s-151 -61 -151 -150s62 -150 151 -150z" />
    <glyph glyph-name="uni1EE1" unicode="&#x1ee1;" horiz-adv-x="657" 
d="M252 640c-23 0 -38 -11 -43 -35h-74c5 74 48 117 115 117s112 -39 155 -39c23 0 38 11 43 34h74c-4 -75 -49 -117 -115 -117s-112 40 -155 40zM541 465c54 -50 86 -120 86 -200c0 -160 -127 -280 -299 -280s-299 120 -299 280s127 280 299 280h1v0c62 0 94 -15 142 -15
c43 0 56 23 56 98h91c0 -92 -23 -143 -77 -163zM328 115c89 0 151 61 151 150s-62 150 -151 150s-151 -61 -151 -150s62 -150 151 -150z" />
    <glyph glyph-name="ohungarumlaut" unicode="&#x151;" horiz-adv-x="657" 
d="M254 605h-113l101 138h147zM461 605h-112l100 138h148zM328 -15c-174 0 -299 122 -299 280s125 280 299 280c175 0 299 -122 299 -280s-124 -280 -299 -280zM328 115c92 0 151 64 151 150s-59 150 -151 150s-151 -64 -151 -150s59 -150 151 -150z" />
    <glyph glyph-name="omacron" unicode="&#x14d;" horiz-adv-x="657" 
d="M502 605h-349v86h349v-86zM328 -15c-174 0 -299 122 -299 280s125 280 299 280c175 0 299 -122 299 -280s-124 -280 -299 -280zM328 115c92 0 151 64 151 150s-59 150 -151 150s-151 -64 -151 -150s59 -150 151 -150z" />
    <glyph glyph-name="oslash" unicode="&#xf8;" horiz-adv-x="657" 
d="M606 489l-44 -44c41 -48 65 -111 65 -180c0 -158 -124 -280 -299 -280c-68 0 -129 19 -178 51l-47 -47l-51 50l44 44c-42 49 -67 112 -67 182c0 158 125 280 299 280c70 0 131 -19 180 -53l48 48zM172 265c0 -32 8 -61 22 -85l219 218c-23 14 -52 22 -85 22
c-95 0 -156 -66 -156 -155zM328 110c95 0 156 66 156 155c0 31 -7 59 -21 82l-218 -217c23 -13 51 -20 83 -20z" />
    <glyph glyph-name="oslashacute" unicode="&#x1ff;" horiz-adv-x="657" 
d="M353 743h153l-136 -138h-118zM606 489l-44 -44c41 -48 65 -111 65 -180c0 -158 -124 -280 -299 -280c-68 0 -129 19 -178 51l-47 -47l-51 50l44 44c-42 49 -67 112 -67 182c0 158 125 280 299 280c70 0 131 -19 180 -53l48 48zM172 265c0 -32 8 -61 22 -85l219 218
c-23 14 -52 22 -85 22c-95 0 -156 -66 -156 -155zM328 110c95 0 156 66 156 155c0 31 -7 59 -21 82l-218 -217c23 -13 51 -20 83 -20z" />
    <glyph glyph-name="otilde" unicode="&#xf5;" horiz-adv-x="657" 
d="M407 600c-66 0 -112 40 -155 40c-23 0 -38 -11 -43 -35h-74c5 74 48 117 115 117s112 -39 155 -39c23 0 38 11 43 34h74c-4 -75 -49 -117 -115 -117zM328 -15c-174 0 -299 122 -299 280s125 280 299 280c175 0 299 -122 299 -280s-124 -280 -299 -280zM328 115
c92 0 151 64 151 150s-59 150 -151 150s-151 -64 -151 -150s59 -150 151 -150z" />
    <glyph glyph-name="uni1E4D" unicode="&#x1e4d;" horiz-adv-x="657" 
d="M370 752h-118l101 138h153zM407 600c-66 0 -112 40 -155 40c-23 0 -38 -11 -43 -35h-74c5 74 48 117 115 117s112 -39 155 -39c23 0 38 11 43 34h74c-4 -75 -49 -117 -115 -117zM328 -15c-174 0 -299 122 -299 280s125 280 299 280c175 0 299 -122 299 -280
s-124 -280 -299 -280zM328 115c92 0 151 64 151 150s-59 150 -151 150s-151 -64 -151 -150s59 -150 151 -150z" />
    <glyph glyph-name="oe" unicode="&#x153;" horiz-adv-x="1084" 
d="M1055 262v-43h-431c5 -68 61 -112 149 -112c65 0 112 26 164 79l91 -94c-63 -68 -142 -107 -255 -107c-99 0 -176 32 -225 88c-51 -54 -126 -88 -218 -88c-175 0 -301 122 -301 280s126 280 301 280c93 0 170 -35 221 -91c50 57 124 91 215 91c176 0 289 -126 289 -283z
M626 321h282c-7 62 -62 104 -140 104c-80 0 -134 -42 -142 -104zM330 114c91 0 150 65 150 151s-59 151 -150 151c-92 0 -151 -65 -151 -151s59 -151 151 -151z" />
    <glyph glyph-name="p" unicode="p" horiz-adv-x="669" 
d="M198 -225h-148v755h142v-47h2c41 42 103 62 172 62c156 0 274 -121 274 -280c0 -160 -117 -280 -274 -280c-66 0 -132 23 -166 56h-2v-266zM343 115c87 0 149 61 149 150s-61 149 -150 149c-78 0 -144 -53 -144 -115v-67c0 -65 63 -117 145 -117z" />
    <glyph glyph-name="thorn" unicode="&#xfe;" horiz-adv-x="669" 
d="M365 545c157 0 275 -120 275 -280s-117 -280 -274 -280c-66 0 -132 23 -166 56h-2v-266h-148v955h148v-242c41 39 101 57 167 57zM342 115c88 0 150 61 150 150c0 90 -61 150 -151 150c-77 0 -143 -53 -143 -115v-68c0 -65 64 -117 144 -117z" />
    <glyph glyph-name="q" unicode="q" horiz-adv-x="669" 
d="M619 530v-755h-148v266h-2c-34 -33 -100 -56 -166 -56c-157 0 -274 120 -274 280c0 159 117 280 274 280c69 0 131 -20 172 -62h2v47h142zM326 115c82 0 145 52 145 117v67c0 62 -66 115 -144 115c-90 0 -150 -60 -150 -149s62 -150 149 -150z" />
    <glyph glyph-name="r" unicode="r" horiz-adv-x="439" 
d="M198 0h-148v530h139v-51h2c39 40 92 61 156 61c29 0 57 -5 87 -14l-31 -133c-29 8 -48 11 -77 11c-79 0 -128 -52 -128 -162v-242z" />
    <glyph glyph-name="racute" unicode="&#x155;" horiz-adv-x="439" 
d="M244 590h-118l101 138h153zM198 0h-148v530h139v-51h2c39 40 92 61 156 61c29 0 57 -5 87 -14l-31 -133c-29 8 -48 11 -77 11c-79 0 -128 -52 -128 -162v-242z" />
    <glyph glyph-name="rcaron" unicode="&#x159;" horiz-adv-x="439" 
d="M364 659l-88 -79h-148l-88 79l64 66l98 -93l97 93zM347 540c29 0 57 -5 87 -14l-31 -133c-29 8 -48 11 -77 11c-79 0 -128 -52 -128 -162v-242h-148v530h139v-51h2c39 40 92 61 156 61z" />
    <glyph glyph-name="uni0157" unicode="&#x157;" horiz-adv-x="439" 
d="M198 0h-148v530h139v-51h2c39 40 92 61 156 61c29 0 57 -5 87 -14l-31 -133c-29 8 -48 11 -77 11c-79 0 -128 -52 -128 -162v-242zM63 -289v60c33 9 42 24 42 59h-47v120h132v-106c0 -79 -43 -124 -127 -133z" />
    <glyph glyph-name="s" unicode="s" horiz-adv-x="607" 
d="M328 -15c-165 0 -284 72 -309 187l139 33c21 -69 76 -102 170 -102c69 0 111 18 111 46c0 25 -26 43 -161 66c-169 28 -228 82 -228 161c0 97 98 169 237 169c136 0 257 -64 289 -160l-134 -41c-20 52 -83 83 -155 83c-51 0 -89 -22 -89 -48c0 -18 20 -31 149 -57
c185 -36 240 -88 240 -172c0 -92 -107 -165 -259 -165z" />
    <glyph glyph-name="sacute" unicode="&#x15b;" horiz-adv-x="607" 
d="M330 605h-118l101 138h153zM328 -15c-165 0 -284 72 -309 187l139 33c21 -69 76 -102 170 -102c69 0 111 18 111 46c0 25 -26 43 -161 66c-169 28 -228 82 -228 161c0 97 98 169 237 169c136 0 257 -64 289 -160l-134 -41c-20 52 -83 83 -155 83c-51 0 -89 -22 -89 -48
c0 -18 20 -31 149 -57c185 -36 240 -88 240 -172c0 -92 -107 -165 -259 -165z" />
    <glyph glyph-name="scaron" unicode="&#x161;" horiz-adv-x="607" 
d="M450 674l-88 -79h-148l-88 79l64 66l98 -93l97 93zM347 322c185 -36 240 -88 240 -172c0 -92 -107 -165 -259 -165c-165 0 -284 72 -309 187l139 33c21 -69 76 -102 170 -102c69 0 111 18 111 46c0 25 -26 43 -161 66c-169 28 -228 82 -228 161c0 97 98 169 237 169
c136 0 257 -64 289 -160l-134 -41c-20 52 -83 83 -155 83c-51 0 -89 -22 -89 -48c0 -18 20 -31 149 -57z" />
    <glyph glyph-name="scedilla" unicode="&#x15f;" horiz-adv-x="607" 
d="M587 150c0 -88 -97 -158 -237 -165l-30 -43c10 3 21 4 32 4c67 0 114 -37 114 -95c0 -67 -52 -111 -132 -111c-43 0 -88 15 -124 40l47 67c25 -18 47 -27 71 -27c30 0 48 14 48 36c0 18 -19 30 -46 30c-20 0 -38 -6 -55 -19l-59 25l58 96c-137 14 -233 82 -255 184
l139 33c21 -69 76 -102 170 -102c69 0 111 18 111 46c0 25 -26 43 -161 66c-169 28 -228 82 -228 161c0 97 98 169 237 169c136 0 257 -64 289 -160l-134 -41c-20 52 -83 83 -155 83c-51 0 -89 -22 -89 -48c0 -18 20 -31 149 -57c185 -36 240 -88 240 -172z" />
    <glyph glyph-name="scircumflex" unicode="&#x15d;" horiz-adv-x="607" 
d="M385 585l-97 93l-98 -93l-64 66l88 79h148l88 -79zM347 322c185 -36 240 -88 240 -172c0 -92 -107 -165 -259 -165c-165 0 -284 72 -309 187l139 33c21 -69 76 -102 170 -102c69 0 111 18 111 46c0 25 -26 43 -161 66c-169 28 -228 82 -228 161c0 97 98 169 237 169
c136 0 257 -64 289 -160l-134 -41c-20 52 -83 83 -155 83c-51 0 -89 -22 -89 -48c0 -18 20 -31 149 -57z" />
    <glyph glyph-name="uni0219" unicode="&#x219;" horiz-adv-x="607" 
d="M328 -15c-165 0 -284 72 -309 187l139 33c21 -69 76 -102 170 -102c69 0 111 18 111 46c0 25 -26 43 -161 66c-169 28 -228 82 -228 161c0 97 98 169 237 169c136 0 257 -64 289 -160l-134 -41c-20 52 -83 83 -155 83c-51 0 -89 -22 -89 -48c0 -18 20 -31 149 -57
c185 -36 240 -88 240 -172c0 -92 -107 -165 -259 -165zM262 -305v60c33 9 42 24 42 59h-47v120h132v-106c0 -79 -43 -124 -127 -133z" />
    <glyph glyph-name="uni1E63" unicode="&#x1e63;" horiz-adv-x="607" 
d="M328 -15c-165 0 -284 72 -309 187l139 33c21 -69 76 -102 170 -102c69 0 111 18 111 46c0 25 -26 43 -161 66c-169 28 -228 82 -228 161c0 97 98 169 237 169c136 0 257 -64 289 -160l-134 -41c-20 52 -83 83 -155 83c-51 0 -89 -22 -89 -48c0 -18 20 -31 149 -57
c185 -36 240 -88 240 -172c0 -92 -107 -165 -259 -165zM388 -193h-129v127h129v-127z" />
    <glyph glyph-name="germandbls" unicode="&#xdf;" horiz-adv-x="640" 
d="M198 0h-148v487c0 140 102 228 268 228c151 0 258 -80 258 -194c0 -56 -30 -106 -85 -132v-2c75 -27 120 -91 120 -173c0 -136 -105 -214 -284 -214h-60v127h75c80 0 121 33 121 96c0 55 -41 88 -110 88h-86v116h47c76 0 116 28 116 81c0 49 -44 80 -111 80
c-77 0 -121 -38 -121 -104v-484z" />
    <glyph glyph-name="longs" unicode="&#x17f;" horiz-adv-x="380" 
d="M260 0h-148v404h-107v126h107v54c0 93 65 150 174 150h129v-127h-111c-29 0 -44 -14 -44 -41v-566z" />
    <glyph glyph-name="t" unicode="t" horiz-adv-x="469" 
d="M449 530v-126h-171v-224c0 -33 11 -43 54 -43h97v-137h-112c-135 0 -187 54 -187 171v233h-125v126h125v133h148v-133h171z" />
    <glyph glyph-name="tbar" unicode="&#x167;" horiz-adv-x="469" 
d="M449 530v-127h-171v-74h171v-101h-171v-48c0 -33 11 -43 54 -43h97v-137h-112c-135 0 -187 54 -187 171v57h-123v101h123v74h-125v127h125v133h148v-133h171z" />
    <glyph glyph-name="tcaron" unicode="&#x165;" horiz-adv-x="445" 
d="M323 692v120h133v-106c0 -78 -43 -124 -128 -133v60c33 9 43 25 43 59h-48zM130 663h148v-133h171v-127h-171v-223c0 -33 11 -43 54 -43h97v-137h-112c-135 0 -187 54 -187 171v232h-125v127h125v133z" />
    <glyph glyph-name="uni0163" unicode="&#x163;" horiz-adv-x="469" 
d="M449 530v-127h-171v-223c0 -33 11 -43 54 -43h97v-137h-112h-21l-29 -42c10 3 21 4 32 4c67 0 114 -37 114 -95c0 -67 -52 -111 -132 -111c-43 0 -88 15 -124 40l47 67c25 -18 47 -27 71 -27c30 0 48 14 48 36c0 18 -19 30 -46 30c-20 0 -38 -6 -55 -19l-59 25l62 102h7
c-72 20 -102 73 -102 161v232h-125v127h125v133h148v-133h171z" />
    <glyph glyph-name="uni021B" unicode="&#x21b;" horiz-adv-x="469" 
d="M449 530v-127h-171v-223c0 -33 11 -43 54 -43h97v-137h-112c-135 0 -187 54 -187 171v232h-125v127h125v133h148v-133h171zM252 -170h-47v120h132v-106c0 -79 -43 -124 -127 -133v60c33 9 42 24 42 59z" />
    <glyph glyph-name="uni1E6D" unicode="&#x1e6d;" horiz-adv-x="469" 
d="M449 530v-127h-171v-223c0 -33 11 -43 54 -43h97v-137h-112c-135 0 -187 54 -187 171v232h-125v127h125v133h148v-133h171zM335 -177h-129v127h129v-127z" />
    <glyph glyph-name="u" unicode="u" horiz-adv-x="659" 
d="M285 -15c-151 0 -241 89 -241 242v303h148v-281c0 -83 45 -130 131 -130c82 0 138 54 138 130v281h148v-530h-143v50h-2c-44 -42 -105 -65 -179 -65z" />
    <glyph glyph-name="uacute" unicode="&#xfa;" horiz-adv-x="659" 
d="M368 590h-118l101 138h153zM285 -15c-151 0 -241 89 -241 242v303h148v-281c0 -83 45 -130 131 -130c82 0 138 54 138 130v281h148v-530h-143v50h-2c-44 -42 -105 -65 -179 -65z" />
    <glyph glyph-name="ubreve" unicode="&#x16d;" horiz-adv-x="659" 
d="M327 580c-92 0 -156 53 -165 139h77c10 -31 43 -50 88 -50s78 19 87 50h78c-10 -86 -72 -139 -165 -139zM285 -15c-151 0 -241 89 -241 242v303h148v-281c0 -83 45 -130 131 -130c82 0 138 54 138 130v281h148v-530h-143v50h-2c-44 -42 -105 -65 -179 -65z" />
    <glyph glyph-name="uni01D4" unicode="&#x1d4;" horiz-adv-x="659" 
d="M488 659l-88 -79h-148l-88 79l64 66l98 -93l97 93zM461 249v281h148v-530h-143v50h-2c-44 -42 -105 -65 -179 -65c-151 0 -241 89 -241 242v303h148v-281c0 -83 45 -130 131 -130c82 0 138 54 138 130z" />
    <glyph glyph-name="ucircumflex" unicode="&#xfb;" horiz-adv-x="659" 
d="M423 570l-97 93l-98 -93l-64 66l88 79h148l88 -79zM461 249v281h148v-530h-143v50h-2c-44 -42 -105 -65 -179 -65c-151 0 -241 89 -241 242v303h148v-281c0 -83 45 -130 131 -130c82 0 138 54 138 130z" />
    <glyph glyph-name="udieresis" unicode="&#xfc;" horiz-adv-x="659" 
d="M283 580h-130v128h130v-128zM500 580h-130v128h130v-128zM285 -15c-151 0 -241 89 -241 242v303h148v-281c0 -83 45 -130 131 -130c82 0 138 54 138 130v281h148v-530h-143v50h-2c-44 -42 -105 -65 -179 -65z" />
    <glyph glyph-name="uni01D8" unicode="&#x1d8;" horiz-adv-x="659" 
d="M368 748h-118l101 138h153zM283 580h-130v128h130v-128zM500 580h-130v128h130v-128zM285 -15c-151 0 -241 89 -241 242v303h148v-281c0 -83 45 -130 131 -130c82 0 138 54 138 130v281h148v-530h-143v50h-2c-44 -42 -105 -65 -179 -65z" />
    <glyph glyph-name="uni01DA" unicode="&#x1da;" horiz-adv-x="659" 
d="M488 817l-88 -79h-148l-88 79l64 66l98 -93l97 93zM153 708h130v-128h-130v128zM500 580h-130v128h130v-128zM461 249v281h148v-530h-143v50h-2c-44 -42 -105 -65 -179 -65c-151 0 -241 89 -241 242v303h148v-281c0 -83 45 -130 131 -130c82 0 138 54 138 130z" />
    <glyph glyph-name="uni01DC" unicode="&#x1dc;" horiz-adv-x="659" 
d="M403 748h-117l-137 138h153zM283 580h-130v128h130v-128zM500 580h-130v128h130v-128zM285 -15c-151 0 -241 89 -241 242v303h148v-281c0 -83 45 -130 131 -130c82 0 138 54 138 130v281h148v-530h-143v50h-2c-44 -42 -105 -65 -179 -65z" />
    <glyph glyph-name="uni01D6" unicode="&#x1d6;" horiz-adv-x="659" 
d="M501 748h-349v86h349v-86zM283 580h-130v128h130v-128zM500 580h-130v128h130v-128zM285 -15c-151 0 -241 89 -241 242v303h148v-281c0 -83 45 -130 131 -130c82 0 138 54 138 130v281h148v-530h-143v50h-2c-44 -42 -105 -65 -179 -65z" />
    <glyph glyph-name="uni1EE5" unicode="&#x1ee5;" horiz-adv-x="659" 
d="M285 -15c-151 0 -241 89 -241 242v303h148v-281c0 -83 45 -130 131 -130c82 0 138 54 138 130v281h148v-530h-143v50h-2c-44 -42 -105 -65 -179 -65zM357 -193h-129v127h129v-127z" />
    <glyph glyph-name="ugrave" unicode="&#xf9;" horiz-adv-x="659" 
d="M403 590h-117l-137 138h153zM285 -15c-151 0 -241 89 -241 242v303h148v-281c0 -83 45 -130 131 -130c82 0 138 54 138 130v281h148v-530h-143v50h-2c-44 -42 -105 -65 -179 -65z" />
    <glyph glyph-name="uni1EE7" unicode="&#x1ee7;" horiz-adv-x="659" 
d="M321 693c-25 0 -48 -9 -85 -25l-28 69c45 19 82 28 123 28c66 0 120 -35 120 -85c0 -38 -28 -67 -82 -80v-20h-86v57h1c49 6 81 13 81 32c0 15 -17 24 -44 24zM461 249v281h148v-530h-143v50h-2c-44 -42 -105 -65 -179 -65c-151 0 -241 89 -241 242v303h148v-281
c0 -83 45 -130 131 -130c82 0 138 54 138 130z" />
    <glyph glyph-name="uhorn" unicode="&#x1b0;" horiz-adv-x="699" 
d="M628 628h91c0 -110 -32 -161 -110 -172v-456h-143v50h-2c-44 -42 -105 -65 -179 -65c-151 0 -241 89 -241 242v303h148v-281c0 -83 45 -130 131 -130c82 0 138 54 138 130v281h106c47 0 61 17 61 98z" />
    <glyph glyph-name="uni1EE9" unicode="&#x1ee9;" horiz-adv-x="699" 
d="M351 728h153l-136 -138h-118zM628 628h91c0 -110 -32 -161 -110 -172v-456h-143v50h-2c-44 -42 -105 -65 -179 -65c-151 0 -241 89 -241 242v303h148v-281c0 -83 45 -130 131 -130c82 0 138 54 138 130v281h106c47 0 61 17 61 98z" />
    <glyph glyph-name="uni1EF1" unicode="&#x1ef1;" horiz-adv-x="699" 
d="M628 628h91c0 -110 -32 -161 -110 -172v-456h-143v50h-2c-44 -42 -105 -65 -179 -65c-151 0 -241 89 -241 242v303h148v-281c0 -83 45 -130 131 -130c82 0 138 54 138 130v281h106c47 0 61 17 61 98zM357 -193h-129v127h129v-127z" />
    <glyph glyph-name="uni1EEB" unicode="&#x1eeb;" horiz-adv-x="699" 
d="M302 728l101 -138h-117l-137 138h153zM628 628h91c0 -110 -32 -161 -110 -172v-456h-143v50h-2c-44 -42 -105 -65 -179 -65c-151 0 -241 89 -241 242v303h148v-281c0 -83 45 -130 131 -130c82 0 138 54 138 130v281h106c47 0 61 17 61 98z" />
    <glyph glyph-name="uni1EED" unicode="&#x1eed;" horiz-adv-x="699" 
d="M321 693c-25 0 -48 -9 -85 -25l-28 69c45 19 82 28 123 28c66 0 120 -35 120 -85c0 -38 -28 -67 -82 -80v-20h-86v57h1c49 6 81 13 81 32c0 15 -17 24 -44 24zM628 628h91c0 -110 -32 -161 -110 -172v-456h-143v50h-2c-44 -42 -105 -65 -179 -65c-151 0 -241 89 -241 242
v303h148v-281c0 -83 45 -130 131 -130c82 0 138 54 138 130v281h106c47 0 61 17 61 98z" />
    <glyph glyph-name="uni1EEF" unicode="&#x1eef;" horiz-adv-x="699" 
d="M251 625c-23 0 -38 -11 -43 -35h-74c5 74 48 117 115 117s112 -39 155 -39c23 0 38 11 43 34h74c-4 -75 -49 -117 -115 -117s-112 40 -155 40zM628 628h91c0 -110 -32 -161 -110 -172v-456h-143v50h-2c-44 -42 -105 -65 -179 -65c-151 0 -241 89 -241 242v303h148v-281
c0 -83 45 -130 131 -130c82 0 138 54 138 130v281h106c47 0 61 17 61 98z" />
    <glyph glyph-name="uhungarumlaut" unicode="&#x171;" horiz-adv-x="659" 
d="M252 590h-113l101 138h147zM459 590h-112l100 138h148zM285 -15c-151 0 -241 89 -241 242v303h148v-281c0 -83 45 -130 131 -130c82 0 138 54 138 130v281h148v-530h-143v50h-2c-44 -42 -105 -65 -179 -65z" />
    <glyph glyph-name="umacron" unicode="&#x16b;" horiz-adv-x="659" 
d="M501 590h-349v86h349v-86zM285 -15c-151 0 -241 89 -241 242v303h148v-281c0 -83 45 -130 131 -130c82 0 138 54 138 130v281h148v-530h-143v50h-2c-44 -42 -105 -65 -179 -65z" />
    <glyph glyph-name="uogonek" unicode="&#x173;" horiz-adv-x="659" 
d="M593 -103l37 -81c-35 -19 -69 -28 -108 -28c-66 0 -107 32 -107 89c0 46 27 86 83 123h-32v50h-2c-44 -42 -105 -65 -179 -65c-151 0 -241 89 -241 242v303h148v-281c0 -83 45 -130 131 -130c82 0 138 54 138 130v281h148v-530h-26c-45 -29 -73 -63 -73 -93
c0 -19 10 -28 29 -28c16 0 35 6 54 18z" />
    <glyph glyph-name="uring" unicode="&#x16f;" horiz-adv-x="659" 
d="M335 536c-87 0 -151 56 -151 134s64 134 151 134c86 0 150 -56 150 -134s-64 -134 -150 -134zM335 602c40 0 68 28 68 68s-28 68 -68 68c-41 0 -69 -28 -69 -68s28 -68 69 -68zM285 -15c-151 0 -241 89 -241 242v303h148v-281c0 -83 45 -130 131 -130
c82 0 138 54 138 130v281h148v-530h-143v50h-2c-44 -42 -105 -65 -179 -65z" />
    <glyph glyph-name="utilde" unicode="&#x169;" horiz-adv-x="659" 
d="M406 585c-66 0 -112 40 -155 40c-23 0 -38 -11 -43 -35h-74c5 74 48 117 115 117s112 -39 155 -39c23 0 38 11 43 34h74c-4 -75 -49 -117 -115 -117zM285 -15c-151 0 -241 89 -241 242v303h148v-281c0 -83 45 -130 131 -130c82 0 138 54 138 130v281h148v-530h-143v50h-2
c-44 -42 -105 -65 -179 -65z" />
    <glyph glyph-name="v" unicode="v" horiz-adv-x="660" 
d="M397 0h-135l-262 530h163l166 -358h2l166 358h164z" />
    <glyph glyph-name="w" unicode="w" horiz-adv-x="945" 
d="M314 0h-149l-150 530h150l94 -350h2l145 350h133l146 -350h2l94 350h150l-151 -530h-148l-159 376h-2z" />
    <glyph glyph-name="wacute" unicode="&#x1e83;" horiz-adv-x="945" 
d="M514 590h-118l101 138h153zM314 0h-149l-150 530h150l94 -350h2l145 350h133l146 -350h2l94 350h150l-151 -530h-148l-159 376h-2z" />
    <glyph glyph-name="wcircumflex" unicode="&#x175;" horiz-adv-x="945" 
d="M569 570l-97 93l-98 -93l-64 66l88 79h148l88 -79zM687 180l94 350h150l-151 -530h-148l-159 376h-2l-157 -376h-149l-150 530h150l94 -350h2l145 350h133l146 -350h2z" />
    <glyph glyph-name="wdieresis" unicode="&#x1e85;" horiz-adv-x="945" 
d="M428 580h-130v128h130v-128zM645 580h-130v128h130v-128zM314 0h-149l-150 530h150l94 -350h2l145 350h133l146 -350h2l94 350h150l-151 -530h-148l-159 376h-2z" />
    <glyph glyph-name="wgrave" unicode="&#x1e81;" horiz-adv-x="945" 
d="M549 590h-117l-137 138h153zM314 0h-149l-150 530h150l94 -350h2l145 350h133l146 -350h2l94 350h150l-151 -530h-148l-159 376h-2z" />
    <glyph glyph-name="x" unicode="x" horiz-adv-x="646" 
d="M181 0h-186l231 268l-225 262h186l135 -171h2l135 171h186l-225 -262l231 -268h-186l-141 177h-2z" />
    <glyph glyph-name="y" unicode="y" horiz-adv-x="649" 
d="M282 -225h-163l129 250l-248 505h165l161 -347h2l157 347h164z" />
    <glyph glyph-name="yacute" unicode="&#xfd;" horiz-adv-x="649" 
d="M367 590h-118l101 138h153zM282 -225h-163l129 250l-248 505h165l161 -347h2l157 347h164z" />
    <glyph glyph-name="ycircumflex" unicode="&#x177;" horiz-adv-x="649" 
d="M422 570l-97 93l-98 -93l-64 66l88 79h148l88 -79zM328 183l157 347h164l-367 -755h-163l129 250l-248 505h165l161 -347h2z" />
    <glyph glyph-name="ydieresis" unicode="&#xff;" horiz-adv-x="649" 
d="M281 580h-130v128h130v-128zM498 580h-130v128h130v-128zM282 -225h-163l129 250l-248 505h165l161 -347h2l157 347h164z" />
    <glyph glyph-name="uni1EF5" unicode="&#x1ef5;" horiz-adv-x="649" 
d="M282 -225h-163l129 250l-248 505h165l161 -347h2l157 347h164zM552 -177h-129v127h129v-127z" />
    <glyph glyph-name="ygrave" unicode="&#x1ef3;" horiz-adv-x="649" 
d="M402 590h-117l-137 138h153zM282 -225h-163l129 250l-248 505h165l161 -347h2l157 347h164z" />
    <glyph glyph-name="uni1EF7" unicode="&#x1ef7;" horiz-adv-x="649" 
d="M319 693c-25 0 -48 -9 -85 -25l-28 69c45 19 82 28 123 28c66 0 120 -35 120 -85c0 -38 -28 -67 -82 -80v-20h-86v57h1c49 6 81 13 81 32c0 15 -17 24 -44 24zM328 183l157 347h164l-367 -755h-163l129 250l-248 505h165l161 -347h2z" />
    <glyph glyph-name="uni1EF9" unicode="&#x1ef9;" horiz-adv-x="649" 
d="M404 585c-66 0 -112 40 -155 40c-23 0 -38 -11 -43 -35h-74c5 74 48 117 115 117s112 -39 155 -39c23 0 38 11 43 34h74c-4 -75 -49 -117 -115 -117zM282 -225h-163l129 250l-248 505h165l161 -347h2l157 347h164z" />
    <glyph glyph-name="z" unicode="z" horiz-adv-x="635" 
d="M610 0h-585v115l358 288v2h-345v125h566v-115l-358 -288v-2h364v-125z" />
    <glyph glyph-name="zacute" unicode="&#x17a;" horiz-adv-x="635" 
d="M360 590h-118l101 138h153zM610 0h-585v115l358 288v2h-345v125h566v-115l-358 -288v-2h364v-125z" />
    <glyph glyph-name="zcaron" unicode="&#x17e;" horiz-adv-x="635" 
d="M480 659l-88 -79h-148l-88 79l64 66l98 -93l97 93zM246 127v-2h364v-125h-585v115l358 288v2h-345v125h566v-115z" />
    <glyph glyph-name="zdotaccent" unicode="&#x17c;" horiz-adv-x="635" 
d="M394 617h-153v148h153v-148zM610 0h-585v115l358 288v2h-345v125h566v-115l-358 -288v-2h364v-125z" />
    <glyph glyph-name="uni1E93" unicode="&#x1e93;" horiz-adv-x="635" 
d="M610 0h-585v115l358 288v2h-345v125h566v-115l-358 -288v-2h364v-125zM382 -177h-129v127h129v-127z" />
    <glyph glyph-name="a.ordn" horiz-adv-x="300" 
d="M115 417c-64 0 -104 32 -104 83c0 48 34 73 122 91c47 10 60 16 60 28c0 14 -16 21 -43 21c-32 0 -55 -15 -63 -43l-77 17c12 56 66 93 137 93c79 0 128 -41 128 -108v-175h-74v25h-1c-16 -20 -47 -32 -85 -32zM131 482c40 0 65 22 65 47v28h-1c-4 -7 -16 -12 -45 -19
c-46 -12 -59 -18 -59 -34c0 -15 14 -22 40 -22z" />
    <glyph glyph-name="b.ordn" horiz-adv-x="352" 
d="M196 707c85 0 146 -60 146 -145s-61 -145 -146 -145c-35 0 -66 10 -84 28h-1v-21h-86v380h91v-121h1c18 15 48 24 79 24zM181 496c44 0 70 25 70 66s-26 66 -70 66c-39 0 -65 -24 -65 -53v-27c0 -28 26 -52 65 -52z" />
    <glyph glyph-name="c.ordn" horiz-adv-x="323" 
d="M166 417c-92 0 -156 59 -156 145s64 145 156 145c71 0 133 -39 147 -99l-86 -23c-9 28 -29 43 -61 43c-40 0 -65 -26 -65 -66s25 -66 65 -66c32 0 52 15 61 43l86 -23c-14 -60 -76 -99 -147 -99z" />
    <glyph glyph-name="d.ordn" horiz-adv-x="352" 
d="M156 707c31 0 61 -9 79 -24h1v121h91v-380h-86v21h-1c-18 -18 -49 -28 -84 -28c-85 0 -146 60 -146 145s61 145 146 145zM171 496c39 0 65 24 65 52v27c0 29 -26 53 -65 53c-44 0 -70 -25 -70 -66s26 -66 70 -66z" />
    <glyph glyph-name="e.ordn" horiz-adv-x="329" 
d="M319 560v-28h-217c8 -28 36 -46 72 -46c31 0 62 12 91 34l42 -59c-36 -28 -82 -44 -136 -44c-98 0 -161 57 -161 145c0 84 65 145 155 145c92 0 154 -60 154 -147zM101 591h129c-5 29 -30 47 -65 47c-34 0 -59 -18 -64 -47z" />
    <glyph glyph-name="f.ordn" horiz-adv-x="243" 
d="M152 424h-91v200h-61v76h61v26c0 58 35 89 99 89h67v-75h-54c-14 0 -21 -8 -21 -20v-20h91v-76h-91v-200z" />
    <glyph glyph-name="g.ordn" horiz-adv-x="357" 
d="M175 296c-60 0 -110 20 -149 60l54 56c32 -30 59 -42 95 -42c43 0 70 22 70 60v18h-1c-18 -18 -47 -29 -85 -29c-88 0 -149 59 -149 144c0 83 61 144 148 144c36 0 68 -12 87 -31h1v24h86v-260c0 -87 -62 -144 -157 -144zM173 494c40 0 68 21 68 51v39
c0 28 -29 48 -68 48c-45 0 -72 -26 -72 -68c0 -43 27 -70 72 -70z" />
    <glyph glyph-name="h.ordn" horiz-adv-x="365" 
d="M116 424h-91v380h91v-130h1c22 21 54 33 94 33c82 0 135 -52 135 -126v-157h-92v141c0 39 -24 63 -69 63c-41 0 -69 -25 -69 -65v-139z" />
    <glyph glyph-name="i.ordn" horiz-adv-x="140" 
d="M116 747h-91v86h91v-86zM116 424h-91v276h91v-276z" />
    <glyph glyph-name="j.ordn" horiz-adv-x="141" 
d="M116 747h-91v86h91v-86zM7 303h-57v86h50c17 0 25 7 25 24v286h91v-294c0 -69 -37 -102 -109 -102z" />
    <glyph glyph-name="k.ordn" horiz-adv-x="344" 
d="M116 424h-91v380h91v-201h1l107 97h119l-125 -109l131 -167h-109l-86 116h-1l-37 -33v-83z" />
    <glyph glyph-name="l.ordn" horiz-adv-x="140" 
d="M116 424h-91v380h91v-380z" />
    <glyph glyph-name="m.ordn" horiz-adv-x="547" 
d="M116 424h-91v276h88v-29h1c19 24 52 36 86 36c41 0 78 -15 96 -38h1c20 23 57 38 99 38c80 0 132 -48 132 -116v-167h-91v152c0 31 -23 52 -58 52c-36 0 -58 -21 -58 -52v-152h-89v152c0 31 -22 52 -58 52c-34 0 -58 -21 -58 -52v-152z" />
    <glyph glyph-name="n.ordn" horiz-adv-x="365" 
d="M116 424h-91v276h87v-29h1c22 23 57 36 98 36c82 0 135 -53 135 -126v-157h-92v141c0 39 -24 63 -69 63c-41 0 -69 -25 -69 -65v-139z" />
    <glyph glyph-name="o.ordn" horiz-adv-x="338" 
d="M169 417c-91 0 -159 59 -159 145s68 145 159 145s159 -59 159 -145s-68 -145 -159 -145zM169 496c42 0 68 27 68 66s-26 66 -68 66s-68 -27 -68 -66s26 -66 68 -66z" />
    <glyph glyph-name="p.ordn" horiz-adv-x="353" 
d="M196 707c85 0 148 -60 148 -145s-63 -145 -148 -145c-31 0 -60 8 -79 24h-1v-138h-91v397h86v-21h1c18 18 50 28 84 28zM181 496c44 0 70 25 70 66s-26 66 -70 66c-39 0 -65 -24 -65 -53v-27c0 -28 26 -52 65 -52z" />
    <glyph glyph-name="q.ordn" horiz-adv-x="353" 
d="M158 707c34 0 65 -10 83 -28h1v21h87v-397h-92v138h-1c-19 -16 -47 -24 -78 -24c-86 0 -148 60 -148 145s62 145 148 145zM172 496c39 0 65 24 65 52v27c0 29 -26 53 -65 53c-44 0 -70 -25 -70 -66s26 -66 70 -66z" />
    <glyph glyph-name="r.ordn" horiz-adv-x="235" 
d="M186 704c18 0 36 -3 55 -7l-19 -83c-15 3 -23 4 -34 4c-51 0 -72 -28 -72 -95v-99h-91v276h85v-24h1c17 18 43 28 75 28z" />
    <glyph glyph-name="s.ordn" horiz-adv-x="334" 
d="M178 417c-87 0 -142 34 -158 91l79 25c13 -35 36 -50 80 -50c29 0 49 9 49 21c0 15 -15 22 -71 32c-92 16 -127 39 -127 85c0 51 53 86 131 86c71 0 126 -30 145 -81l-79 -23c-12 26 -33 39 -66 39c-27 0 -43 -8 -43 -20c0 -11 13 -16 62 -25c97 -17 134 -42 134 -90
c0 -54 -55 -90 -136 -90z" />
    <glyph glyph-name="t.ordn" horiz-adv-x="232" 
d="M232 701v-79h-86v-90c0 -17 7 -23 27 -23h53v-85h-59c-78 0 -112 30 -112 100v98h-55v79h55v70h91v-70h86z" />
    <glyph glyph-name="u.ordn" horiz-adv-x="355" 
d="M239 561v139h92v-276h-87v29h-1c-21 -23 -54 -36 -93 -36c-81 0 -130 50 -130 132v151h91v-145c0 -40 21 -59 64 -59c40 0 64 25 64 65z" />
    <glyph glyph-name="v.ordn" horiz-adv-x="361" 
d="M223 425h-85l-133 275h101l74 -171h1l74 171h102z" />
    <glyph glyph-name="w.ordn" horiz-adv-x="518" 
d="M183 424h-94l-84 276h97l46 -162h1l69 162h82l69 -162h1l46 162h97l-85 -276h-93l-76 175h-1z" />
    <glyph glyph-name="x.ordn" horiz-adv-x="365" 
d="M113 424h-108l122 141l-118 135h110l63 -79h1l63 79h110l-118 -135l123 -141h-109l-69 85h-1z" />
    <glyph glyph-name="y.ordn" horiz-adv-x="357" 
d="M180 535l76 165h96l-195 -397h-97l72 144l-127 253h96l78 -165h1z" />
    <glyph glyph-name="z.ordn" horiz-adv-x="317" 
d="M312 424h-307v66l171 133v1h-167v76h298v-66l-172 -133v-1h177v-76z" />
    <glyph glyph-name="a.ss01" horiz-adv-x="652" 
d="M458 493v37h144v-530h-144v37h-3c-33 -31 -89 -52 -152 -52c-161 0 -274 115 -274 280s113 280 274 280c63 0 118 -21 152 -52h3zM320 116c77 0 134 52 134 116v66c0 65 -57 117 -134 117c-88 0 -143 -56 -143 -150c0 -93 55 -149 143 -149z" />
    <glyph glyph-name="aacute.ss01" horiz-adv-x="652" 
d="M371 605h-118l101 138h153zM457 493v37h145v-530h-145v37h-2c-33 -31 -89 -52 -153 -52c-160 0 -273 115 -273 280s113 280 273 280c64 0 119 -21 153 -52h2zM320 116c77 0 134 52 134 116v66c0 65 -57 117 -134 117c-88 0 -143 -57 -143 -150s55 -149 143 -149z" />
    <glyph glyph-name="abreve.ss01" horiz-adv-x="652" 
d="M331 595c-92 0 -156 53 -165 139h77c10 -31 43 -50 88 -50s78 19 87 50h78c-10 -86 -72 -139 -165 -139zM457 493v37h145v-530h-145v37h-2c-33 -31 -89 -52 -153 -52c-160 0 -273 115 -273 280s113 280 273 280c64 0 119 -21 153 -52h2zM320 116c77 0 134 52 134 116v66
c0 65 -57 117 -134 117c-88 0 -143 -57 -143 -150s55 -149 143 -149z" />
    <glyph glyph-name="uni1EAF.ss01" horiz-adv-x="652" 
d="M369 764h-118l101 138h153zM328 595c-92 0 -156 53 -165 139h77c10 -31 43 -50 88 -50s78 19 87 50h78c-10 -86 -72 -139 -165 -139zM457 493v37h145v-530h-145v37h-2c-33 -31 -89 -52 -153 -52c-160 0 -273 115 -273 280s113 280 273 280c64 0 119 -21 153 -52h2z
M320 116c77 0 134 52 134 116v66c0 65 -57 117 -134 117c-88 0 -143 -57 -143 -150s55 -149 143 -149z" />
    <glyph glyph-name="uni1EB7.ss01" horiz-adv-x="652" 
d="M331 595c-92 0 -156 53 -165 139h77c10 -31 43 -50 88 -50s78 19 87 50h78c-10 -86 -72 -139 -165 -139zM457 493v37h145v-530h-145v37h-2c-33 -31 -89 -52 -153 -52c-160 0 -273 115 -273 280s113 280 273 280c64 0 119 -21 153 -52h2zM320 116c77 0 134 52 134 116v66
c0 65 -57 117 -134 117c-88 0 -143 -57 -143 -150s55 -149 143 -149zM396 -192h-129v127h129v-127z" />
    <glyph glyph-name="uni1EB1.ss01" horiz-adv-x="652" 
d="M405 764h-117l-137 138h153zM329 595c-92 0 -156 53 -165 139h77c10 -31 43 -50 88 -50s78 19 87 50h78c-10 -86 -72 -139 -165 -139zM457 493v37h145v-530h-145v37h-2c-33 -31 -89 -52 -153 -52c-160 0 -273 115 -273 280s113 280 273 280c64 0 119 -21 153 -52h2z
M320 116c77 0 134 52 134 116v66c0 65 -57 117 -134 117c-88 0 -143 -57 -143 -150s55 -149 143 -149z" />
    <glyph glyph-name="uni1EB3.ss01" horiz-adv-x="652" 
d="M318 836c-23 0 -43 -8 -76 -23l-26 62c41 17 74 25 111 25c59 0 108 -31 108 -76c0 -35 -26 -60 -74 -72v-18h-77v52c44 5 73 11 73 28c0 14 -15 22 -39 22zM330 595c-92 0 -156 53 -165 139h77c10 -31 43 -50 88 -50s78 19 87 50h78c-10 -86 -72 -139 -165 -139z
M457 493v37h145v-530h-145v37h-2c-33 -31 -89 -52 -153 -52c-160 0 -273 115 -273 280s113 280 273 280c64 0 119 -21 153 -52h2zM454 232v66c0 65 -57 117 -134 117c-88 0 -143 -57 -143 -150s55 -149 143 -149c77 0 134 52 134 116z" />
    <glyph glyph-name="uni1EB5.ss01" horiz-adv-x="652" 
d="M397 758c-56 0 -96 38 -132 38c-20 0 -33 -11 -37 -34h-63c4 71 41 111 98 111s95 -36 132 -36c19 0 32 10 36 31h64c-4 -71 -42 -110 -98 -110zM330 595c-92 0 -156 53 -165 139h77c10 -31 43 -50 88 -50s78 19 87 50h78c-10 -86 -72 -139 -165 -139zM457 493v37h145
v-530h-145v37h-2c-33 -31 -89 -52 -153 -52c-160 0 -273 115 -273 280s113 280 273 280c64 0 119 -21 153 -52h2zM320 116c77 0 134 52 134 116v66c0 65 -57 117 -134 117c-88 0 -143 -57 -143 -150s55 -149 143 -149z" />
    <glyph glyph-name="uni01CE.ss01" horiz-adv-x="652" 
d="M491 674l-88 -79h-148l-88 79l64 66l98 -93l97 93zM457 493v37h145v-530h-145v37h-2c-33 -31 -89 -52 -153 -52c-160 0 -273 115 -273 280s113 280 273 280c64 0 119 -21 153 -52h2zM454 232v66c0 65 -57 117 -134 117c-88 0 -143 -57 -143 -150s55 -149 143 -149
c77 0 134 52 134 116z" />
    <glyph glyph-name="acircumflex.ss01" horiz-adv-x="652" 
d="M426 585l-97 93l-98 -93l-64 66l88 79h148l88 -79zM457 493v37h145v-530h-145v37h-2c-33 -31 -89 -52 -153 -52c-160 0 -273 115 -273 280s113 280 273 280c64 0 119 -21 153 -52h2zM454 232v66c0 65 -57 117 -134 117c-88 0 -143 -57 -143 -150s55 -149 143 -149
c77 0 134 52 134 116z" />
    <glyph glyph-name="uni1EA5.ss01" horiz-adv-x="652" 
d="M556 823h138l-122 -125h-107zM426 585l-97 93l-98 -93l-64 66l88 79h148l88 -79zM455 493h2v37h145v-530h-145v37h-2c-33 -31 -89 -52 -153 -52c-160 0 -273 115 -273 280s113 280 273 280c64 0 119 -21 153 -52zM454 232v66c0 65 -57 117 -134 117
c-88 0 -143 -57 -143 -150s55 -149 143 -149c77 0 134 52 134 116z" />
    <glyph glyph-name="uni1EAD.ss01" horiz-adv-x="652" 
d="M426 585l-97 93l-98 -93l-64 66l88 79h148l88 -79zM457 493v37h145v-530h-145v37h-2c-33 -31 -89 -52 -153 -52c-160 0 -273 115 -273 280s113 280 273 280c64 0 119 -21 153 -52h2zM454 232v66c0 65 -57 117 -134 117c-88 0 -143 -57 -143 -150s55 -149 143 -149
c77 0 134 52 134 116zM396 -192h-129v127h129v-127z" />
    <glyph glyph-name="uni1EA7.ss01" horiz-adv-x="652" 
d="M512 823l91 -125h-105l-123 125h137zM426 585l-97 93l-98 -93l-64 66l88 79h148l88 -79zM455 493h2v37h145v-530h-145v37h-2c-33 -31 -89 -52 -153 -52c-160 0 -273 115 -273 280s113 280 273 280c64 0 119 -21 153 -52zM454 232v66c0 65 -57 117 -134 117
c-88 0 -143 -57 -143 -150s55 -149 143 -149c77 0 134 52 134 116z" />
    <glyph glyph-name="uni1EA9.ss01" horiz-adv-x="652" 
d="M516 855c59 0 108 -31 108 -76c0 -35 -25 -61 -74 -73v-17h-77v51c44 6 73 12 73 29c0 14 -14 22 -39 22c-23 0 -43 -8 -76 -23l-26 62c41 17 74 25 111 25zM426 585l-97 93l-98 -93l-64 66l88 79h148l88 -79zM455 493h2v37h145v-530h-145v37h-2
c-33 -31 -89 -52 -153 -52c-160 0 -273 115 -273 280s113 280 273 280c64 0 119 -21 153 -52zM454 232v66c0 65 -57 117 -134 117c-88 0 -143 -57 -143 -150s55 -149 143 -149c77 0 134 52 134 116z" />
    <glyph glyph-name="uni1EAB.ss01" horiz-adv-x="652" 
d="M266 796c-20 0 -32 -11 -37 -34h-62c4 71 41 111 97 111s94 -36 130 -36c20 0 32 10 36 31h63c-4 -71 -42 -110 -97 -110s-94 38 -130 38zM169 651l88 79h147l88 -79l-64 -66l-97 93l-98 -93zM457 493v37h145v-530h-145v37h-2c-33 -31 -89 -52 -153 -52
c-160 0 -273 115 -273 280s113 280 273 280c64 0 119 -21 153 -52h2zM454 232v66c0 65 -57 117 -134 117c-88 0 -143 -57 -143 -150s55 -149 143 -149c77 0 134 52 134 116z" />
    <glyph glyph-name="adieresis.ss01" horiz-adv-x="652" 
d="M286 595h-130v128h130v-128zM503 595h-130v128h130v-128zM457 493v37h145v-530h-145v37h-2c-33 -31 -89 -52 -153 -52c-160 0 -273 115 -273 280s113 280 273 280c64 0 119 -21 153 -52h2zM320 116c77 0 134 52 134 116v66c0 65 -57 117 -134 117
c-88 0 -143 -57 -143 -150s55 -149 143 -149z" />
    <glyph glyph-name="uni01DF.ss01" horiz-adv-x="652" 
d="M504 763h-349v86h349v-86zM286 595h-130v128h130v-128zM503 595h-130v128h130v-128zM457 493v37h145v-530h-145v37h-2c-33 -31 -89 -52 -153 -52c-160 0 -273 115 -273 280s113 280 273 280c64 0 119 -21 153 -52h2zM320 116c77 0 134 52 134 116v66
c0 65 -57 117 -134 117c-88 0 -143 -57 -143 -150s55 -149 143 -149z" />
    <glyph glyph-name="uni1EA1.ss01" horiz-adv-x="652" 
d="M457 493v37h145v-530h-145v37h-2c-33 -31 -89 -52 -153 -52c-160 0 -273 115 -273 280s113 280 273 280c64 0 119 -21 153 -52h2zM320 116c77 0 134 52 134 116v66c0 65 -57 117 -134 117c-88 0 -143 -57 -143 -150s55 -149 143 -149zM396 -192h-129v127h129v-127z" />
    <glyph glyph-name="agrave.ss01" horiz-adv-x="652" 
d="M407 605h-117l-137 138h153zM457 493v37h145v-530h-145v37h-2c-33 -31 -89 -52 -153 -52c-160 0 -273 115 -273 280s113 280 273 280c64 0 119 -21 153 -52h2zM320 116c77 0 134 52 134 116v66c0 65 -57 117 -134 117c-88 0 -143 -57 -143 -150s55 -149 143 -149z" />
    <glyph glyph-name="uni1EA3.ss01" horiz-adv-x="652" 
d="M324 708c-25 0 -48 -9 -85 -25l-28 69c45 19 82 28 123 28c66 0 120 -35 120 -85c0 -38 -28 -67 -82 -80v-20h-86v57h1c49 6 81 13 81 32c0 15 -17 24 -44 24zM457 493v37h145v-530h-145v37h-2c-33 -31 -89 -52 -153 -52c-160 0 -273 115 -273 280s113 280 273 280
c64 0 119 -21 153 -52h2zM454 232v66c0 65 -57 117 -134 117c-88 0 -143 -57 -143 -150s55 -149 143 -149c77 0 134 52 134 116z" />
    <glyph glyph-name="amacron.ss01" horiz-adv-x="652" 
d="M504 605h-349v86h349v-86zM457 493v37h145v-530h-145v37h-2c-33 -31 -89 -52 -153 -52c-160 0 -273 115 -273 280s113 280 273 280c64 0 119 -21 153 -52h2zM320 116c77 0 134 52 134 116v66c0 65 -57 117 -134 117c-88 0 -143 -57 -143 -150s55 -149 143 -149z" />
    <glyph glyph-name="aogonek.ss01" horiz-adv-x="652" 
d="M588 -103l37 -81c-35 -19 -69 -28 -108 -28c-66 0 -107 32 -107 89c0 46 27 86 83 123h-36v37h-2c-33 -31 -89 -52 -153 -52c-160 0 -273 115 -273 280s113 280 273 280c64 0 119 -21 153 -52h2v37h145v-530h-24c-45 -29 -73 -63 -73 -93c0 -19 10 -28 29 -28
c16 0 35 6 54 18zM454 232v66c0 65 -57 117 -134 117c-88 0 -143 -57 -143 -150s55 -149 143 -149c77 0 134 52 134 116z" />
    <glyph glyph-name="aring.ss01" horiz-adv-x="652" 
d="M308 573c-78 0 -135 51 -135 121s57 120 135 120s135 -50 135 -120s-57 -121 -135 -121zM308 633c37 0 62 25 62 61s-25 61 -62 61s-62 -25 -62 -61s25 -61 62 -61zM457 493v37h145v-530h-145v37h-2c-33 -31 -89 -52 -153 -52c-160 0 -273 115 -273 280s113 280 273 280
c64 0 119 -21 153 -52h2zM320 116c77 0 134 52 134 116v66c0 65 -57 117 -134 117c-88 0 -143 -57 -143 -150s55 -149 143 -149z" />
    <glyph glyph-name="aringacute.ss01" horiz-adv-x="652" 
d="M308 573c-78 0 -135 51 -135 121c0 57 38 100 93 115l89 121h153l-130 -132c40 -20 65 -58 65 -104c0 -70 -57 -121 -135 -121zM308 755c-37 0 -62 -25 -62 -61s25 -61 62 -61s62 25 62 61s-25 61 -62 61zM457 493v37h145v-530h-145v37h-2c-33 -31 -89 -52 -153 -52
c-160 0 -273 115 -273 280s113 280 273 280c64 0 119 -21 153 -52h2zM454 232v66c0 65 -57 117 -134 117c-88 0 -143 -57 -143 -150s55 -149 143 -149c77 0 134 52 134 116z" />
    <glyph glyph-name="atilde.ss01" horiz-adv-x="652" 
d="M409 600c-66 0 -112 40 -155 40c-23 0 -38 -11 -43 -35h-74c5 74 48 117 115 117s112 -39 155 -39c23 0 38 11 43 34h74c-4 -75 -49 -117 -115 -117zM457 493v37h145v-530h-145v37h-2c-33 -31 -89 -52 -153 -52c-160 0 -273 115 -273 280s113 280 273 280
c64 0 119 -21 153 -52h2zM320 116c77 0 134 52 134 116v66c0 65 -57 117 -134 117c-88 0 -143 -57 -143 -150s55 -149 143 -149z" />
    <glyph glyph-name="aring.ss02" horiz-adv-x="593" 
d="M299 574c-78 0 -135 51 -135 120c0 70 57 121 135 121s136 -51 136 -121c0 -69 -58 -120 -136 -120zM299 633c37 0 62 26 62 61c0 36 -25 61 -62 61s-62 -25 -62 -61c0 -35 25 -61 62 -61zM234 -15c-118 0 -198 64 -198 158c0 98 64 146 213 171c119 21 146 30 146 56
c0 35 -37 56 -94 56c-68 0 -120 -37 -132 -95l-140 29c21 110 130 185 268 185c155 0 251 -79 251 -208v-337h-133v58h-2c-32 -45 -100 -73 -179 -73zM256 107c86 0 151 39 151 90v64h-2c-13 -19 -41 -30 -113 -44c-87 -17 -118 -33 -118 -64c0 -32 26 -46 82 -46z" />
    <glyph glyph-name="aringacute.ss02" horiz-adv-x="593" 
d="M299 574c-78 0 -135 51 -135 120c0 57 38 102 94 116l88 120h153l-129 -131c40 -21 65 -59 65 -105c0 -69 -58 -120 -136 -120zM299 755c-37 0 -62 -25 -62 -61c0 -35 25 -61 62 -61s62 26 62 61c0 36 -25 61 -62 61zM297 545c155 0 251 -79 251 -208v-337h-133v58h-2
c-32 -45 -100 -73 -179 -73c-118 0 -198 64 -198 158c0 98 64 146 213 171c119 21 146 30 146 56c0 35 -37 56 -94 56c-68 0 -120 -37 -132 -95l-140 29c21 110 130 185 268 185zM407 197v64h-2c-13 -19 -41 -30 -113 -44c-87 -17 -118 -33 -118 -64c0 -32 26 -46 82 -46
c86 0 151 39 151 90z" />
    <glyph glyph-name="f.ss03" horiz-adv-x="416" 
d="M260 0h-148v404h-107v126h107v54c0 93 65 150 174 150h129v-127h-111c-29 0 -44 -14 -44 -41v-36h128v-126h-128v-404z" />
    <glyph glyph-name="j.ss03" horiz-adv-x="246" 
d="M199 617h-153v148h153v-148zM195 -225h-148v755h148v-755z" />
    <glyph glyph-name="t.ss03" horiz-adv-x="418" 
d="M312 137h87v-137h-102c-135 0 -187 54 -187 171v233h-105v126h105v133h148v-133h131v-126h-131v-224c0 -33 11 -43 54 -43z" />
    <glyph glyph-name="ordfeminine" unicode="&#xaa;" horiz-adv-x="300" 
d="M115 417c-64 0 -104 32 -104 83c0 48 34 73 122 91c47 10 60 16 60 28c0 14 -16 21 -43 21c-32 0 -55 -15 -63 -43l-77 17c12 56 66 93 137 93c79 0 128 -41 128 -108v-175h-74v25h-1c-16 -20 -47 -32 -85 -32zM131 482c40 0 65 22 65 47v28h-1c-4 -7 -16 -12 -45 -19
c-46 -12 -59 -18 -59 -34c0 -15 14 -22 40 -22z" />
    <glyph glyph-name="ordmasculine" unicode="&#xba;" horiz-adv-x="338" 
d="M169 417c-91 0 -159 59 -159 145s68 145 159 145s159 -59 159 -145s-68 -145 -159 -145zM169 496c42 0 68 27 68 66s-26 66 -68 66s-68 -27 -68 -66s26 -66 68 -66z" />
    <glyph glyph-name="uni0410" unicode="&#x410;" horiz-adv-x="763" 
d="M769 0h-166l-46 108h-351l-46 -108h-165l315 700h143zM381 521l-118 -279h238l-118 279h-2z" />
    <glyph glyph-name="uni0411" unicode="&#x411;" 
d="M223 431h232c143 0 240 -86 240 -216c0 -129 -97 -215 -240 -215h-386v700h569v-134h-415v-135zM223 134h225c59 0 95 32 95 84c0 51 -36 83 -95 83h-225v-167z" />
    <glyph glyph-name="uni0412" unicode="&#x412;" horiz-adv-x="721" 
d="M425 0h-356v700h387c122 0 209 -79 209 -188c0 -58 -27 -105 -72 -131v-2c61 -28 98 -87 98 -161c0 -146 -87 -218 -266 -218zM222 566v-146h209c53 0 81 26 81 73s-28 73 -81 73h-209zM222 301v-167h225c63 0 91 28 91 85c0 52 -31 82 -90 82h-226z" />
    <glyph glyph-name="uni0413" unicode="&#x413;" horiz-adv-x="608" 
d="M223 0h-154v700h525v-134h-371v-566z" />
    <glyph glyph-name="uni0403" unicode="&#x403;" horiz-adv-x="608" 
d="M378 760h-118l101 138h153zM223 0h-154v700h525v-134h-371v-566z" />
    <glyph glyph-name="uni0490" unicode="&#x490;" horiz-adv-x="608" 
d="M431 700v155h153v-289h-361v-566h-154v700h362z" />
    <glyph glyph-name="uni0414" unicode="&#x414;" horiz-adv-x="800" 
d="M701 700v-566h99v-289h-142v155h-516v-155h-142v289h42c69 26 84 84 91 289l10 277h558zM227 134h321v431h-264l-5 -150c-5 -149 -17 -231 -52 -277v-4z" />
    <glyph glyph-name="uni0415" unicode="&#x415;" horiz-adv-x="637" 
d="M597 0h-528v700h529v-134h-376v-147h340v-127h-340v-158h375v-134z" />
    <glyph glyph-name="uni0400" unicode="&#x400;" horiz-adv-x="637" 
d="M413 760h-117l-137 138h153zM597 0h-528v700h529v-134h-376v-147h340v-127h-340v-158h375v-134z" />
    <glyph glyph-name="uni0401" unicode="&#x401;" horiz-adv-x="637" 
d="M292 750h-130v128h130v-128zM509 750h-130v128h130v-128zM597 0h-528v700h529v-134h-376v-147h340v-127h-340v-158h375v-134z" />
    <glyph glyph-name="uni0416" unicode="&#x416;" horiz-adv-x="997" 
d="M821 700h181l-265 -328l265 -372h-186l-205 298h-36v-298h-153v298h-36l-205 -298h-186l265 372l-265 328h182l206 -268h39v268h153v-268h39z" />
    <glyph glyph-name="uni0417" unicode="&#x417;" horiz-adv-x="673" 
d="M349 -15c-176 0 -298 93 -320 245l150 29c15 -95 71 -143 170 -143c88 0 141 37 141 99c0 55 -42 84 -132 84h-94v115h93c77 0 119 28 119 82c0 55 -49 88 -128 88c-90 0 -145 -40 -163 -120l-148 25c25 141 142 226 311 226c162 0 278 -82 278 -200
c0 -59 -29 -108 -90 -142v-2c65 -30 107 -98 107 -165c0 -133 -118 -221 -294 -221z" />
    <glyph glyph-name="uni0418" unicode="&#x418;" horiz-adv-x="788" 
d="M719 700v-700h-153v473h-2l-348 -473h-147v700h153v-472h2l348 472h147z" />
    <glyph glyph-name="uni0419" unicode="&#x419;" horiz-adv-x="788" 
d="M394 750c-105 0 -171 55 -170 144h96c4 -50 29 -75 74 -75c46 0 72 26 75 75h97c0 -89 -66 -144 -172 -144zM719 700v-700h-153v473h-2l-348 -473h-147v700h153v-472h2l348 472h147z" />
    <glyph glyph-name="uni040D" unicode="&#x40d;" horiz-adv-x="788" 
d="M472 760h-117l-137 138h153zM719 700v-700h-153v473h-2l-348 -473h-147v700h153v-472h2l348 472h147z" />
    <glyph glyph-name="uni041A" unicode="&#x41a;" horiz-adv-x="710" 
d="M716 0h-196l-228 282h-68v-282h-155v700h155v-268h71l231 268h189l-304 -334z" />
    <glyph glyph-name="uni040C" unicode="&#x40c;" horiz-adv-x="710" 
d="M380 898h153l-136 -138h-118zM716 0h-196l-228 282h-68v-282h-155v700h155v-268h71l231 268h189l-304 -334z" />
    <glyph glyph-name="uni041B" unicode="&#x41b;" horiz-adv-x="771" 
d="M143 423l10 277h549v-700h-153v565h-254l-5 -150c-9 -300 -59 -385 -247 -423l-34 130c107 22 125 58 134 301z" />
    <glyph glyph-name="uni041C" unicode="&#x41c;" horiz-adv-x="994" 
d="M222 0h-153v700h176l250 -488h2l251 488h176v-700h-152v459h-2l-242 -459h-62l-242 459h-2v-459z" />
    <glyph glyph-name="uni041D" unicode="&#x41d;" horiz-adv-x="765" 
d="M222 0h-153v700h153v-275h320v275h153v-700h-153v287h-320v-287z" />
    <glyph glyph-name="uni041E" unicode="&#x41e;" horiz-adv-x="794" 
d="M397 -15c-214 0 -368 152 -368 365s154 365 368 365s368 -152 368 -365s-154 -365 -368 -365zM397 119c128 0 215 93 215 231s-87 231 -215 231s-215 -93 -215 -231s87 -231 215 -231z" />
    <glyph glyph-name="uni041F" unicode="&#x41f;" horiz-adv-x="755" 
d="M685 700v-700h-153v561h-310v-561h-153v700h616z" />
    <glyph glyph-name="uni0420" unicode="&#x420;" horiz-adv-x="711" 
d="M222 0h-153v700h368c148 0 259 -87 259 -229c0 -144 -107 -229 -259 -229h-215v-242zM222 566v-190h206c66 0 115 34 115 96c0 66 -41 94 -115 94h-206z" />
    <glyph glyph-name="uni0421" unicode="&#x421;" horiz-adv-x="755" 
d="M397 -15c-214 0 -368 152 -368 365s154 365 368 365c169 0 297 -93 331 -243l-144 -36c-25 92 -93 145 -187 145c-128 0 -215 -94 -215 -231s87 -231 215 -231c98 0 170 57 189 158l145 -34c-29 -161 -160 -258 -334 -258z" />
    <glyph glyph-name="uni0422" unicode="&#x422;" horiz-adv-x="700" 
d="M426 0h-153v565h-249v135h651v-135h-249v-565z" />
    <glyph glyph-name="uni0423" unicode="&#x423;" horiz-adv-x="717" 
d="M360 345l190 355h173l-399 -700h-175l127 202l-276 498h175l183 -355h2z" />
    <glyph glyph-name="uni040E" unicode="&#x40e;" horiz-adv-x="717" 
d="M361 750c-105 0 -171 55 -170 144h96c4 -50 29 -75 74 -75c46 0 72 26 75 75h97c0 -89 -66 -144 -172 -144zM360 345l190 355h173l-399 -700h-175l127 202l-276 498h175l183 -355h2z" />
    <glyph glyph-name="uni0424" unicode="&#x424;" horiz-adv-x="957" 
d="M555 720v-75c221 -5 372 -103 372 -290s-151 -285 -372 -290v-85h-153v85c-221 5 -373 103 -373 290s152 285 373 290v75h153zM402 188v334c-133 0 -224 -56 -224 -167s91 -167 224 -167zM555 522v-334c133 0 224 56 224 167s-91 167 -224 167z" />
    <glyph glyph-name="uni0425" unicode="&#x425;" horiz-adv-x="755" 
d="M187 0h-187l277 355l-270 345h187l182 -246h2l181 246h188l-271 -345l279 -355h-188l-189 256h-2z" />
    <glyph glyph-name="uni0427" unicode="&#x427;" horiz-adv-x="719" 
d="M497 408v292h153v-700h-153v276c-56 -19 -113 -29 -172 -29c-181 0 -291 93 -291 255v198h154v-185c0 -97 50 -138 156 -138c58 0 106 10 153 31z" />
    <glyph glyph-name="uni0426" unicode="&#x426;" horiz-adv-x="794" 
d="M695 700v-561h99v-294h-142v155h-583v700h153v-561h320v561h153z" />
    <glyph glyph-name="uni0428" unicode="&#x428;" horiz-adv-x="1053" 
d="M835 139v561h149v-700h-915v700h149v-561h236v561h145v-561h236z" />
    <glyph glyph-name="uni0429" unicode="&#x429;" horiz-adv-x="1082" 
d="M984 700v-561h99v-294h-143v155h-871v700h149v-561h236v561h145v-561h236v561h149z" />
    <glyph glyph-name="uni040F" unicode="&#x40f;" horiz-adv-x="765" 
d="M542 700h153v-700h-239v-155h-148v155h-239v700h153v-561h320v561z" />
    <glyph glyph-name="uni042C" unicode="&#x42c;" horiz-adv-x="724" 
d="M222 478h199c160 0 264 -84 264 -237c0 -160 -105 -241 -263 -241h-353v700h153v-222zM222 134h190c77 0 120 36 120 108s-40 105 -119 105h-191v-213z" />
    <glyph glyph-name="uni042A" unicode="&#x42a;" horiz-adv-x="890" 
d="M388 478h198c160 0 264 -84 264 -237c0 -160 -105 -241 -263 -241h-352v565h-221v135h374v-222zM388 134h189c78 0 121 36 121 108s-40 105 -120 105h-190v-213z" />
    <glyph glyph-name="uni042B" unicode="&#x42b;" horiz-adv-x="996" 
d="M222 478h199c160 0 264 -84 264 -237c0 -160 -105 -241 -263 -241h-353v700h153v-222zM774 0v700h153v-700h-153zM222 134h190c77 0 120 36 120 108s-40 105 -119 105h-191v-213z" />
    <glyph glyph-name="uni0409" unicode="&#x409;" horiz-adv-x="1164" 
d="M682 478h178c160 0 264 -84 264 -237c0 -160 -105 -241 -263 -241h-332v565h-234l-5 -150c-9 -300 -59 -385 -247 -423l-34 130c107 22 125 58 134 301l10 277h529v-222zM682 134h169c78 0 121 36 121 108s-40 105 -120 105h-170v-213z" />
    <glyph glyph-name="uni040A" unicode="&#x40a;" horiz-adv-x="1154" 
d="M671 437h180c161 0 264 -84 264 -216c0 -136 -102 -221 -264 -221h-333v302h-296v-302h-153v700h153v-263h296v263h153v-263zM671 134h171c77 0 120 31 120 88c0 56 -40 85 -119 85h-172v-173z" />
    <glyph glyph-name="uni0405" unicode="&#x405;" horiz-adv-x="670" 
d="M362 -15c-189 0 -316 89 -343 246l150 30c21 -101 85 -147 194 -147c88 0 135 29 135 79c0 47 -46 73 -200 109c-183 44 -254 109 -254 208c0 118 112 204 272 204s286 -81 318 -210l-147 -35c-23 76 -84 115 -171 115c-73 0 -119 -31 -119 -73c0 -36 29 -50 186 -90
c191 -48 268 -118 268 -227c0 -128 -110 -209 -289 -209z" />
    <glyph glyph-name="uni0404" unicode="&#x404;" horiz-adv-x="755" 
d="M586 277l145 -34c-29 -161 -160 -258 -334 -258c-214 0 -368 152 -368 365s154 365 368 365c169 0 297 -93 331 -243l-144 -36c-25 92 -93 145 -187 145c-107 0 -185 -66 -208 -167h273v-122h-274c21 -105 100 -173 209 -173c98 0 170 57 189 158z" />
    <glyph glyph-name="uni042D" unicode="&#x42d;" horiz-adv-x="755" 
d="M358 715c215 0 368 -152 368 -365s-153 -365 -368 -365c-174 0 -304 97 -334 258l145 34c19 -101 91 -158 189 -158c109 0 188 68 209 173h-274v122h273c-23 101 -101 167 -208 167c-94 0 -162 -53 -187 -145l-143 36c33 150 161 243 330 243z" />
    <glyph glyph-name="uni0406" unicode="&#x406;" horiz-adv-x="292" 
d="M222 0h-153v700h153v-700z" />
    <glyph glyph-name="uni0407" unicode="&#x407;" horiz-adv-x="292" 
d="M102 750h-130v128h130v-128zM319 750h-130v128h130v-128zM222 0h-153v700h153v-700z" />
    <glyph glyph-name="uni0408" unicode="&#x408;" horiz-adv-x="641" 
d="M301 -15c-165 0 -269 93 -281 254l148 20c11 -97 52 -140 133 -140c78 0 123 58 123 160v421h153v-437c0 -173 -115 -278 -276 -278z" />
    <glyph glyph-name="uni040B" unicode="&#x40b;" horiz-adv-x="922" 
d="M583 426c175 0 285 -93 285 -255v-171h-153v158c0 97 -50 138 -151 138c-57 0 -106 -11 -158 -32v-264h-153v565h-229v135h651v-135h-269v-169c60 19 118 30 177 30z" />
    <glyph glyph-name="uni042E" unicode="&#x42e;" horiz-adv-x="1045" 
d="M655 715c211 0 361 -152 361 -365s-150 -365 -361 -365c-189 0 -329 123 -355 302h-78v-287h-153v700h153v-274h80c31 172 169 289 353 289zM655 119c124 0 207 93 207 231s-83 231 -207 231c-123 0 -207 -93 -207 -231s84 -231 207 -231z" />
    <glyph glyph-name="uni042F" unicode="&#x42f;" horiz-adv-x="712" 
d="M274 700h369v-700h-153v253h-114l-172 -253h-174l181 257v3c-117 20 -186 101 -186 217c0 136 96 223 249 223zM289 384h201v182h-199c-77 0 -113 -28 -113 -88c0 -58 41 -94 111 -94z" />
    <glyph glyph-name="uni0402" unicode="&#x402;" horiz-adv-x="925" 
d="M581 426c180 0 290 -95 290 -222c0 -132 -110 -219 -280 -219c-40 0 -70 2 -107 6l10 129c30 -3 54 -5 79 -5c96 0 145 30 145 89c0 50 -49 92 -156 92c-56 0 -104 -11 -156 -31v-265h-153v565h-229v135h651v-135h-269v-168c59 19 116 29 175 29z" />
    <glyph glyph-name="uni0492" unicode="&#x492;" horiz-adv-x="647" 
d="M633 700v-134h-371v-180h234v-112h-234v-274h-154v274h-89v112h89v314h525z" />
    <glyph glyph-name="uni049A" unicode="&#x49a;" horiz-adv-x="722" 
d="M410 365l205 -226h112v-299h-152v160h-33l-248 282h-70v-282h-155v700h155v-268h72l230 268h189z" />
    <glyph glyph-name="uni04A2" unicode="&#x4a2;" horiz-adv-x="794" 
d="M695 700v-561h99v-299h-142v160h-110v287h-320v-287h-153v700h153v-274h320v274h153z" />
    <glyph glyph-name="uni04AE" unicode="&#x4ae;" horiz-adv-x="716" 
d="M434 0h-153v277l-291 423h175l192 -296h2l192 296h175l-292 -423v-277z" />
    <glyph glyph-name="uni04B0" unicode="&#x4b0;" horiz-adv-x="716" 
d="M551 700h175l-292 -423h188v-108h-188v-169h-153v169h-187v108h187l-291 423h175l192 -296h2z" />
    <glyph glyph-name="uni04BA" unicode="&#x4ba;" horiz-adv-x="719" 
d="M395 453c180 0 290 -93 290 -255v-198h-153v185c0 97 -51 138 -157 138c-58 0 -106 -10 -153 -31v-292h-153v700h153v-276c56 19 113 29 173 29z" />
    <glyph glyph-name="uni04C0" unicode="&#x4c0;" horiz-adv-x="292" 
d="M222 0h-153v700h153v-700z" />
    <glyph glyph-name="uni04D8" unicode="&#x4d8;" horiz-adv-x="763" 
d="M380 -15c-206 0 -351 139 -351 365v62h548c-16 100 -88 169 -197 169c-79 0 -153 -49 -203 -126l-123 80c70 108 181 180 327 180c209 0 353 -146 353 -368c0 -213 -144 -362 -354 -362zM381 119c98 0 186 62 196 168h-390c1 -103 94 -168 194 -168z" />
    <glyph glyph-name="uni04E2" unicode="&#x4e2;" horiz-adv-x="788" 
d="M569 760h-349v86h349v-86zM719 700v-700h-153v473h-2l-348 -473h-147v700h153v-472h2l348 472h147z" />
    <glyph glyph-name="uni04E8" unicode="&#x4e8;" horiz-adv-x="794" 
d="M397 715c214 0 368 -152 368 -365s-154 -365 -368 -365s-368 152 -368 365s154 365 368 365zM397 582c-107 0 -190 -59 -207 -165h414c-17 106 -100 165 -207 165zM397 118c110 0 194 62 209 174h-418c15 -112 99 -174 209 -174z" />
    <glyph glyph-name="uni0430" unicode="&#x430;" horiz-adv-x="593" 
d="M234 -15c-118 0 -198 64 -198 158c0 98 64 146 213 171c119 21 146 30 146 56c0 35 -37 56 -94 56c-68 0 -120 -37 -132 -95l-140 29c21 110 130 185 268 185c155 0 251 -79 251 -208v-337h-133v58h-2c-32 -45 -100 -73 -179 -73zM256 107c86 0 151 39 151 90v64h-2
c-13 -19 -41 -30 -113 -44c-87 -17 -118 -33 -118 -64c0 -32 26 -46 82 -46z" />
    <glyph glyph-name="uni0431" unicode="&#x431;" horiz-adv-x="668" 
d="M360 502c157 0 278 -109 278 -259c0 -153 -126 -258 -299 -258c-187 0 -309 114 -310 299c-1 286 97 405 355 437c101 12 154 22 207 42l46 -118c-44 -21 -109 -35 -225 -48c-148 -17 -204 -49 -225 -153h2c42 36 104 58 171 58zM339 107c90 0 151 53 151 140
s-62 142 -151 142c-88 0 -151 -55 -151 -142c0 -90 58 -140 151 -140z" />
    <glyph glyph-name="uni0432" unicode="&#x432;" horiz-adv-x="609" 
d="M353 0h-303v530h330c109 0 188 -59 188 -144c0 -42 -24 -78 -63 -99v-1c52 -23 85 -68 85 -123c0 -110 -79 -163 -237 -163zM192 409v-81h167c44 0 66 15 66 41s-23 40 -66 40h-167zM192 219v-98h179c41 0 76 9 76 49c0 32 -26 49 -76 49h-179z" />
    <glyph glyph-name="uni0433" unicode="&#x433;" horiz-adv-x="498" 
d="M198 0h-148v530h434v-130h-286v-400z" />
    <glyph glyph-name="uni0453" unicode="&#x453;" horiz-adv-x="498" 
d="M313 590h-118l101 138h153zM198 0h-148v530h434v-130h-286v-400z" />
    <glyph glyph-name="uni0491" unicode="&#x491;" horiz-adv-x="498" 
d="M336 530v110h148v-240h-286v-400h-148v530h286z" />
    <glyph glyph-name="uni0434" unicode="&#x434;" horiz-adv-x="678" 
d="M589 530v-402h79v-245h-133v117h-403v-117h-132v245h37c56 23 63 71 69 211l8 191h475zM249 398l-3 -66c-5 -100 -11 -164 -41 -204h236v270h-192z" />
    <glyph glyph-name="uni0435" unicode="&#x435;" horiz-adv-x="634" 
d="M326 -15c-186 0 -297 111 -297 279c0 163 120 281 288 281c178 0 288 -126 288 -285v-42h-430c5 -69 61 -113 150 -113c66 0 112 26 163 79l92 -92c-61 -67 -140 -107 -254 -107zM177 322h284c-7 62 -62 103 -141 103c-80 0 -135 -41 -143 -103z" />
    <glyph glyph-name="uni0450" unicode="&#x450;" horiz-adv-x="634" 
d="M394 605h-117l-137 138h153zM326 -15c-186 0 -297 111 -297 279c0 163 120 281 288 281c178 0 288 -126 288 -285v-42h-430c5 -69 61 -113 150 -113c66 0 112 26 163 79l92 -92c-61 -67 -140 -107 -254 -107zM177 322h284c-7 62 -62 103 -141 103
c-80 0 -135 -41 -143 -103z" />
    <glyph glyph-name="uni0451" unicode="&#x451;" horiz-adv-x="634" 
d="M273 595h-130v128h130v-128zM490 595h-130v128h130v-128zM326 -15c-186 0 -297 111 -297 279c0 163 120 281 288 281c178 0 288 -126 288 -285v-42h-430c5 -69 61 -113 150 -113c66 0 112 26 163 79l92 -92c-61 -67 -140 -107 -254 -107zM177 322h284
c-7 62 -62 103 -141 103c-80 0 -135 -41 -143 -103z" />
    <glyph glyph-name="uni0436" unicode="&#x436;" horiz-adv-x="852" 
d="M857 0h-182l-148 210h-30v-210h-143v210h-29l-148 -210h-182l212 281l-207 249h175l145 -186h34v186h143v-186h35l145 186h175l-207 -249z" />
    <glyph glyph-name="uni0437" unicode="&#x437;" horiz-adv-x="599" 
d="M317 -15c-159 0 -275 67 -298 173l140 42c21 -68 70 -100 148 -100c75 0 113 20 113 62c0 39 -29 55 -93 55h-101v100h91c54 0 87 21 87 50c0 39 -38 63 -100 63c-69 0 -119 -31 -134 -86l-141 28c23 105 132 173 278 173c142 0 246 -68 246 -161c0 -48 -25 -85 -76 -111
v-1c59 -25 92 -67 92 -124c0 -99 -97 -163 -252 -163z" />
    <glyph glyph-name="uni0438" unicode="&#x438;" horiz-adv-x="643" 
d="M594 530v-530h-148v327h-2l-243 -327h-152v530h148v-327h1l243 327h153z" />
    <glyph glyph-name="uni0439" unicode="&#x439;" horiz-adv-x="643" 
d="M320 580c-105 0 -171 55 -170 144h96c4 -50 29 -75 74 -75c46 0 72 26 75 75h97c0 -89 -66 -144 -172 -144zM594 530v-530h-148v327h-2l-243 -327h-152v530h148v-327h1l243 327h153z" />
    <glyph glyph-name="uni045D" unicode="&#x45d;" horiz-adv-x="643" 
d="M397 590h-117l-137 138h153zM594 530v-530h-148v327h-2l-243 -327h-152v530h148v-327h1l243 327h153z" />
    <glyph glyph-name="uni043A" unicode="&#x43a;" horiz-adv-x="598" 
d="M603 0h-191l-166 205h-49v-205h-147v530h147v-186h49l171 186h181l-238 -249z" />
    <glyph glyph-name="uni045C" unicode="&#x45c;" horiz-adv-x="598" 
d="M330 728h153l-136 -138h-118zM603 0h-191l-166 205h-49v-205h-147v530h147v-186h49l171 186h181l-238 -249z" />
    <glyph glyph-name="uni043B" unicode="&#x43b;" horiz-adv-x="641" 
d="M117 339l8 191h466v-530h-148v397h-183l-3 -65c-10 -217 -27 -302 -213 -340l-35 125c94 19 101 57 108 222z" />
    <glyph glyph-name="uni043C" unicode="&#x43c;" horiz-adv-x="801" 
d="M195 0h-146v530h160l190 -346h2l191 346h160v-530h-146v309h-2l-177 -309h-53l-178 309h-1v-309z" />
    <glyph glyph-name="uni043D" unicode="&#x43d;" horiz-adv-x="648" 
d="M198 0h-148v530h148v-192h252v192h148v-530h-148v206h-252v-206z" />
    <glyph glyph-name="uni043E" unicode="&#x43e;" horiz-adv-x="657" 
d="M328 -15c-174 0 -299 122 -299 280s125 280 299 280c175 0 299 -122 299 -280s-124 -280 -299 -280zM328 115c92 0 151 64 151 150s-59 150 -151 150s-151 -64 -151 -150s59 -150 151 -150z" />
    <glyph glyph-name="uni043F" unicode="&#x43f;" horiz-adv-x="648" 
d="M598 530v-530h-148v397h-252v-397h-148v530h548z" />
    <glyph glyph-name="uni0440" unicode="&#x440;" horiz-adv-x="669" 
d="M198 -225h-148v755h142v-47h2c41 42 103 62 172 62c156 0 274 -121 274 -280c0 -160 -117 -280 -274 -280c-66 0 -132 23 -166 56h-2v-266zM343 115c87 0 149 61 149 150s-61 149 -150 149c-79 0 -144 -53 -144 -115v-67c0 -65 63 -117 145 -117z" />
    <glyph glyph-name="uni0441" unicode="&#x441;" horiz-adv-x="627" 
d="M327 -15c-175 0 -298 120 -298 280s123 280 298 280c139 0 245 -74 276 -186l-138 -40c-18 58 -65 96 -138 96c-94 0 -150 -61 -150 -150s56 -150 150 -150c73 0 118 34 138 96l138 -40c-31 -112 -137 -186 -276 -186z" />
    <glyph glyph-name="uni0442" unicode="&#x442;" horiz-adv-x="566" 
d="M357 0h-148v400h-195v130h538v-130h-195v-400z" />
    <glyph glyph-name="uni0443" unicode="&#x443;" horiz-adv-x="649" 
d="M282 -225h-163l129 250l-248 505h165l161 -347h2l157 347h164z" />
    <glyph glyph-name="uni045E" unicode="&#x45e;" horiz-adv-x="649" 
d="M324 580c-105 0 -171 55 -170 144h96c4 -50 29 -75 74 -75c46 0 72 26 75 75h97c0 -89 -66 -144 -172 -144zM282 -225h-163l129 250l-248 505h165l161 -347h2l157 347h164z" />
    <glyph glyph-name="uni0444" unicode="&#x444;" horiz-adv-x="792" 
d="M465 700v-160c175 -8 298 -109 298 -275s-123 -267 -298 -275v-215h-138v215c-175 8 -298 110 -298 275s123 267 298 275v160h138zM327 111v308c-91 -4 -155 -66 -155 -154s64 -150 155 -154zM465 419v-308c94 4 156 69 156 154s-62 150 -156 154z" />
    <glyph glyph-name="uni0445" unicode="&#x445;" horiz-adv-x="646" 
d="M181 0h-186l231 268l-225 262h186l135 -171h2l135 171h186l-225 -262l231 -268h-186l-141 177h-2z" />
    <glyph glyph-name="uni0447" unicode="&#x447;" horiz-adv-x="612" 
d="M415 311v219h148v-530h-148v180c-48 -14 -95 -21 -138 -21c-149 0 -243 77 -243 202v169h152v-147c0 -54 23 -92 117 -92c41 0 77 7 112 20z" />
    <glyph glyph-name="uni0446" unicode="&#x446;" horiz-adv-x="682" 
d="M593 530v-397h80v-249h-141v116h-482v530h148v-397h247v397h148z" />
    <glyph glyph-name="uni0448" unicode="&#x448;" horiz-adv-x="915" 
d="M718 130v400h148v-530h-816v530h147v-400h188v400h145v-400h188z" />
    <glyph glyph-name="uni0449" unicode="&#x449;" horiz-adv-x="954" 
d="M866 530v-397h79v-249h-141v116h-754v530h147v-400h188v400h145v-400h188v400h148z" />
    <glyph glyph-name="uni045F" unicode="&#x45f;" horiz-adv-x="643" 
d="M445 530h148v-530h-201v-116h-140v116h-202v530h148v-397h247v397z" />
    <glyph glyph-name="uni044C" unicode="&#x44c;" horiz-adv-x="599" 
d="M198 376h142c142 0 230 -71 230 -186c0 -119 -88 -190 -230 -190h-290v530h148v-154zM198 117h133c58 0 91 24 91 73s-33 73 -91 73h-133v-146z" />
    <glyph glyph-name="uni044A" unicode="&#x44a;" horiz-adv-x="716" 
d="M314 376h143c142 0 230 -71 230 -186c0 -119 -88 -190 -230 -190h-291v402h-152v128h300v-154zM314 117h134c57 0 91 24 91 73s-34 73 -91 73h-134v-146z" />
    <glyph glyph-name="uni044B" unicode="&#x44b;" horiz-adv-x="837" 
d="M198 376h142c142 0 230 -71 230 -186c0 -119 -88 -190 -230 -190h-290v530h148v-154zM639 0v530h148v-530h-148zM198 117h133c58 0 91 24 91 73s-33 73 -91 73h-133v-146z" />
    <glyph glyph-name="uni0459" unicode="&#x459;" horiz-adv-x="973" 
d="M581 376h133c142 0 230 -71 230 -186c0 -119 -88 -190 -230 -190h-281v397h-173l-3 -65c-10 -217 -27 -302 -213 -340l-35 125c94 19 101 57 108 222l8 191h456v-154zM581 117h124c57 0 91 24 91 73s-34 73 -91 73h-124v-146z" />
    <glyph glyph-name="uni045A" unicode="&#x45a;" horiz-adv-x="980" 
d="M588 356h139c138 0 223 -68 223 -176c0 -111 -84 -180 -223 -180h-287v234h-242v-234h-148v530h148v-174h242v174h148v-174zM588 117h130c54 0 84 19 84 63s-30 63 -84 63h-130v-126z" />
    <glyph glyph-name="uni0455" unicode="&#x455;" horiz-adv-x="607" 
d="M328 -15c-165 0 -284 72 -309 187l139 33c21 -69 76 -102 170 -102c69 0 111 18 111 46c0 25 -26 43 -161 66c-169 28 -228 82 -228 161c0 97 98 169 237 169c136 0 257 -64 289 -160l-134 -41c-20 52 -83 83 -155 83c-51 0 -89 -22 -89 -48c0 -18 20 -31 149 -57
c185 -36 240 -88 240 -172c0 -92 -107 -165 -259 -165z" />
    <glyph glyph-name="uni0454" unicode="&#x454;" horiz-adv-x="627" 
d="M327 109c71 0 127 35 148 98l128 -36c-31 -112 -141 -186 -276 -186c-176 0 -298 120 -298 280s122 280 298 280c135 0 245 -74 276 -186l-128 -36c-20 62 -77 98 -148 98c-84 0 -132 -40 -147 -99h219v-103h-221c12 -65 61 -110 149 -110z" />
    <glyph glyph-name="uni044D" unicode="&#x44d;" horiz-adv-x="628" 
d="M300 545c176 0 298 -120 298 -280s-122 -280 -298 -280c-134 0 -245 74 -276 186l128 36c21 -63 77 -98 148 -98c88 0 138 45 150 110h-221v103h219c-15 59 -63 99 -148 99c-71 0 -128 -36 -148 -98l-128 36c31 112 142 186 276 186z" />
    <glyph glyph-name="uni0456" unicode="&#x456;" horiz-adv-x="246" 
d="M199 617h-153v148h153v-148zM197 0h-148v530h148v-530z" />
    <glyph glyph-name="uni0457" unicode="&#x457;" horiz-adv-x="246" 
d="M101 617h-101v148h101v-148zM246 617h-100v148h100v-148zM197 0h-148v530h148v-530z" />
    <glyph glyph-name="uni0458" unicode="&#x458;" horiz-adv-x="254" 
d="M207 617h-153v148h153v-148zM11 -206h-92v135h80c43 0 58 16 58 54v547h148v-549c0 -131 -53 -187 -194 -187z" />
    <glyph glyph-name="uni045B" unicode="&#x45b;" horiz-adv-x="672" 
d="M374 545c152 0 254 -99 254 -242v-303h-148v283c0 80 -52 130 -138 130s-144 -53 -144 -130v-283h-148v575h-50v101h50v54h148v-54h197v-101h-197v-95h2c44 42 105 65 174 65z" />
    <glyph glyph-name="uni044E" unicode="&#x44e;" horiz-adv-x="856" 
d="M533 545c170 0 294 -122 294 -280s-124 -280 -294 -280c-148 0 -259 91 -287 217h-48v-202h-148v530h148v-192h50c31 121 141 207 285 207zM533 115c89 0 146 64 146 150s-57 150 -146 150s-146 -64 -146 -150s57 -150 146 -150z" />
    <glyph glyph-name="uni044F" unicode="&#x44f;" horiz-adv-x="596" 
d="M247 530h300v-530h-148v166h-83l-123 -166h-163l139 175v2c-83 24 -137 85 -137 171c0 117 88 182 215 182zM257 277h142v137h-142c-48 0 -77 -26 -77 -68s29 -69 77 -69z" />
    <glyph glyph-name="uni0452" unicode="&#x452;" horiz-adv-x="672" 
d="M374 545c152 0 254 -99 254 -242v-327c0 -130 -60 -182 -206 -182h-59v135h59c40 0 58 20 58 59v295c0 80 -52 130 -138 130s-144 -53 -144 -130v-283h-148v575h-50v101h50v54h148v-54h197v-101h-197v-95h2c44 42 105 65 174 65z" />
    <glyph glyph-name="uni0493" unicode="&#x493;" horiz-adv-x="493" 
d="M489 530v-130h-286v-115h176v-101h-176v-184h-148v184h-60v101h60v245h434z" />
    <glyph glyph-name="uni049B" unicode="&#x49b;" horiz-adv-x="604" 
d="M507 133h101v-133h-18v-94h-140v94h-6l-174 183h-73v-183h-147v530h147v-208h29l191 208h181l-232 -242v-14z" />
    <glyph glyph-name="uni04A3" unicode="&#x4a3;" horiz-adv-x="677" 
d="M588 530v-397h79v-249h-141v116h-86v206h-242v-206h-148v530h148v-192h242v192h148z" />
    <glyph glyph-name="uni04AF" unicode="&#x4af;" horiz-adv-x="660" 
d="M497 530h164l-256 -530v-225h-149v225l-256 530h163l166 -371h2z" />
    <glyph glyph-name="uni04B1" unicode="&#x4b1;" horiz-adv-x="660" 
d="M497 530h164l-256 -530h170v-108h-170v-117h-149v117h-170v108h170l-256 530h163l166 -371h2z" />
    <glyph glyph-name="uni04BB" unicode="&#x4bb;" horiz-adv-x="672" 
d="M198 0h-148v730h148v-250h2c44 42 105 65 174 65c152 0 254 -99 254 -242v-303h-148v283c0 80 -52 130 -138 130s-144 -53 -144 -130v-283z" />
    <glyph glyph-name="uni04CF" unicode="&#x4cf;" horiz-adv-x="246" 
d="M197 0h-148v730h148v-730z" />
    <glyph glyph-name="uni04D9" unicode="&#x4d9;" horiz-adv-x="634" 
d="M317 -15c-178 0 -288 126 -288 285v42h430c-5 69 -60 113 -150 113c-66 0 -112 -28 -163 -79l-90 93c64 63 138 106 252 106c186 0 297 -111 297 -279c0 -163 -120 -281 -288 -281zM315 105c79 0 134 41 142 103h-284c7 -62 62 -103 142 -103z" />
    <glyph glyph-name="uni04E3" unicode="&#x4e3;" horiz-adv-x="643" 
d="M495 590h-349v86h349v-86zM594 530v-530h-148v327h-2l-243 -327h-152v530h148v-327h1l243 327h153z" />
    <glyph glyph-name="uni04E9" unicode="&#x4e9;" horiz-adv-x="657" 
d="M328 545c175 0 299 -122 299 -280s-124 -280 -299 -280c-174 0 -299 122 -299 280s125 280 299 280zM328 431c-79 0 -144 -45 -159 -111h319c-15 66 -80 111 -160 111zM328 99c91 0 152 48 162 117h-323c10 -69 71 -117 161 -117z" />
    <glyph glyph-name="uni0394" unicode="&#x394;" horiz-adv-x="766" 
d="M312 700h143l316 -700h-776zM382 521l-163 -383h328l-163 383h-2z" />
    <glyph glyph-name="uni03A9" unicode="&#x3a9;" horiz-adv-x="782" 
d="M625 102v-2h123v-100h-313v92c113 43 164 125 164 268c0 130 -86 221 -208 221s-209 -91 -209 -221c0 -143 51 -225 165 -268v-92h-314v100h124v2c-85 60 -128 147 -128 259c0 205 153 354 362 354s361 -149 361 -354c0 -112 -42 -199 -127 -259z" />
    <glyph glyph-name="uni03BC" unicode="&#x3bc;" horiz-adv-x="666" 
d="M468 249v281h148v-530h-143v50h-2c-34 -43 -90 -65 -151 -65c-50 0 -90 13 -120 36h-2v-246h-148v755h149v-281c0 -84 46 -130 131 -130c82 0 138 54 138 130z" />
    <glyph glyph-name="pi" unicode="&#x3c0;" horiz-adv-x="808" 
d="M768 530v-130h-150v-215c0 -38 11 -48 54 -48h88v-137h-118c-110 0 -172 43 -172 151v249h-170v-400h-143v400h-152v130h763z" />
    <glyph glyph-name="zero" unicode="0" horiz-adv-x="709" 
d="M355 -15c-190 0 -326 139 -326 351s136 351 326 351s325 -139 325 -351s-135 -351 -325 -351zM355 115c107 0 177 80 177 221s-70 221 -177 221s-178 -80 -178 -221s71 -221 178 -221z" />
    <glyph glyph-name="one" unicode="1" horiz-adv-x="460" 
d="M375 0h-148v518l-203 -108v147l216 115h135v-672z" />
    <glyph glyph-name="two" unicode="2" horiz-adv-x="660" 
d="M225 179c-14 -14 -18 -24 -20 -50h403v-129h-562v100c0 54 13 103 51 144c42 47 97 76 192 107c141 45 179 73 179 125c0 48 -46 83 -117 83c-92 0 -151 -50 -164 -139l-138 14c14 153 132 253 302 253c154 0 265 -89 265 -209c0 -115 -68 -179 -238 -231
c-91 -28 -133 -47 -153 -68z" />
    <glyph glyph-name="three" unicode="3" horiz-adv-x="669" 
d="M342 -15c-166 0 -285 87 -308 234l144 29c15 -89 67 -137 164 -137c84 0 135 35 135 95c0 57 -39 86 -122 86h-86v110h82c71 0 111 26 111 75c0 51 -47 84 -121 84c-83 0 -138 -37 -155 -115l-143 25c24 133 137 216 298 216c155 0 267 -80 267 -193
c0 -55 -28 -99 -86 -132v-2c63 -30 103 -93 103 -163c0 -127 -113 -212 -283 -212z" />
    <glyph glyph-name="four" unicode="4" horiz-adv-x="670" 
d="M554 0h-148v111h-401v133l306 428h243v-429h97v-132h-97v-111zM404 577l-240 -334h242v334h-2z" />
    <glyph glyph-name="five" unicode="5" horiz-adv-x="663" 
d="M340 -15c-159 0 -270 69 -307 188l136 50c27 -79 92 -108 171 -108c93 0 151 45 151 111s-55 117 -152 117c-66 0 -117 -26 -159 -63l-139 38l63 354h465v-129h-353l-22 -129l2 -1c44 27 99 46 168 46c161 0 274 -98 274 -234c0 -146 -116 -240 -298 -240z" />
    <glyph glyph-name="six" unicode="6" horiz-adv-x="670" 
d="M378 447c158 0 272 -98 272 -229c0 -139 -122 -233 -291 -233c-206 0 -330 130 -330 345c0 213 133 357 328 357c135 0 242 -66 277 -183l-135 -38c-20 61 -71 94 -142 94c-100 0 -163 -65 -173 -179h1c46 40 113 66 193 66zM359 111c90 0 149 42 149 108
c0 73 -56 117 -149 117c-92 0 -153 -46 -153 -114c0 -66 63 -111 153 -111z" />
    <glyph glyph-name="seven" unicode="7" horiz-adv-x="585" 
d="M274 0h-171l288 534v2h-382v136h557v-117z" />
    <glyph glyph-name="eight" unicode="8" horiz-adv-x="652" 
d="M324 -15c-185 0 -310 88 -310 210c0 75 47 143 133 176v2c-58 30 -90 74 -90 131c0 108 113 183 267 183c156 0 270 -75 270 -183c0 -55 -32 -101 -92 -131v-2c82 -31 135 -95 135 -176c0 -122 -126 -210 -313 -210zM324 416c78 0 128 30 128 80c0 47 -50 81 -128 81
s-125 -35 -125 -81c0 -50 49 -80 125 -80zM324 110c107 0 164 42 164 97c0 59 -62 99 -164 99c-100 0 -162 -41 -162 -99c0 -55 59 -97 162 -97z" />
    <glyph glyph-name="nine" unicode="9" horiz-adv-x="636" 
d="M304 687c192 0 302 -121 302 -326c0 -251 -101 -376 -288 -376c-139 0 -233 68 -266 179l133 41c24 -68 63 -98 133 -98c83 0 134 57 142 169h-3c-37 -33 -94 -53 -168 -53c-162 0 -270 95 -270 229s116 235 285 235zM162 451c0 -68 54 -112 145 -112
c88 0 145 42 145 111c0 62 -58 115 -145 115c-89 0 -145 -44 -145 -114z" />
    <glyph glyph-name="zero.zero" horiz-adv-x="709" 
d="M355 687c190 0 325 -139 325 -351s-135 -351 -325 -351s-326 139 -326 351s136 351 326 351zM355 561c-108 0 -180 -81 -180 -225c0 -59 12 -107 34 -144l210 358c-19 7 -41 11 -64 11zM355 111c108 0 179 81 179 225c0 61 -13 110 -35 147l-212 -360
c21 -8 43 -12 68 -12z" />
    <glyph glyph-name="zero.case" horiz-adv-x="739" 
d="M369 -15c-197 0 -340 144 -340 365s143 365 340 365c198 0 341 -144 341 -365s-143 -365 -341 -365zM369 119c111 0 188 82 188 231s-77 231 -188 231c-110 0 -187 -82 -187 -231s77 -231 187 -231z" />
    <glyph glyph-name="zero.zero.case" horiz-adv-x="739" 
d="M369 715c197 0 341 -144 341 -365s-144 -365 -341 -365s-340 144 -340 365s143 365 340 365zM370 590c-115 0 -196 -85 -196 -240c0 -66 15 -119 40 -159l227 387c-22 8 -45 12 -71 12zM370 110c115 0 195 85 195 240c0 69 -16 124 -43 164l-228 -389
c23 -10 48 -15 76 -15z" />
    <glyph glyph-name="one.case" horiz-adv-x="471" 
d="M387 0h-153v539l-210 -112v155l223 118h140v-700z" />
    <glyph glyph-name="two.case" horiz-adv-x="682" 
d="M232 185c-13 -13 -17 -24 -18 -51h415v-134h-581v105c0 64 17 112 53 150c42 45 101 78 196 110c148 48 188 77 188 131c0 51 -48 85 -120 85c-97 0 -156 -50 -170 -143l-149 14c13 158 137 263 319 263c159 0 273 -92 273 -218c0 -120 -77 -189 -251 -242
c-91 -28 -133 -48 -155 -70z" />
    <glyph glyph-name="three.case" horiz-adv-x="692" 
d="M354 -15c-176 0 -298 93 -320 245l150 29c15 -95 71 -143 170 -143c88 0 141 37 141 99c0 60 -42 89 -132 89h-84v115h83c77 0 119 28 119 77c0 55 -49 88 -128 88c-90 0 -145 -40 -163 -120l-148 25c25 141 142 226 311 226c162 0 278 -82 278 -200
c0 -58 -29 -103 -90 -138v-2c65 -29 107 -97 107 -169c0 -133 -118 -221 -294 -221z" />
    <glyph glyph-name="four.case" horiz-adv-x="693" 
d="M573 0h-153v116h-415v142l315 442h253v-442h101v-142h-101v-116zM418 601l-246 -343h248v343h-2z" />
    <glyph glyph-name="five.case" horiz-adv-x="686" 
d="M352 -15c-166 0 -279 70 -319 197l141 50c29 -84 99 -113 178 -113c98 0 157 48 157 119c0 66 -56 119 -159 119c-68 0 -121 -28 -165 -66l-144 40l65 369h482v-134h-366l-21 -133l2 -1c47 30 106 46 172 46c169 0 287 -102 287 -241c0 -154 -120 -252 -310 -252z" />
    <glyph glyph-name="six.case" horiz-adv-x="695" 
d="M391 466c164 0 285 -103 285 -238c0 -144 -127 -243 -303 -243c-215 0 -344 135 -344 358s137 372 338 372c148 0 256 -72 292 -192l-141 -38c-20 65 -73 99 -146 99c-108 0 -172 -67 -183 -187h3c44 41 116 69 199 69zM373 116c94 0 154 43 154 114
c0 74 -58 119 -155 119c-96 0 -159 -47 -159 -118c0 -69 65 -115 160 -115z" />
    <glyph glyph-name="seven.case" horiz-adv-x="607" 
d="M286 0h-176l296 559v2h-397v139h578v-121z" />
    <glyph glyph-name="eight.case" horiz-adv-x="682" 
d="M340 -15c-194 0 -326 91 -326 220c0 82 50 148 136 184v2c-60 31 -92 77 -92 134c0 111 119 190 282 190c165 0 283 -79 283 -190c0 -57 -31 -103 -93 -134v-2c88 -36 137 -102 137 -184c0 -129 -131 -220 -327 -220zM340 436c80 0 128 29 128 79c0 46 -47 76 -128 76
c-80 0 -126 -30 -126 -76c0 -50 47 -79 126 -79zM340 125c109 0 165 39 165 92c0 59 -61 98 -165 98c-102 0 -164 -39 -164 -98c0 -54 57 -92 164 -92z" />
    <glyph glyph-name="nine.case" horiz-adv-x="658" 
d="M314 715c200 0 314 -124 314 -338c0 -262 -104 -392 -299 -392c-145 0 -241 70 -276 188l139 42c25 -72 65 -102 137 -102c87 0 139 58 147 176h-2c-39 -35 -98 -56 -175 -56c-169 0 -280 98 -280 238s119 244 295 244zM167 470c0 -71 56 -115 151 -115
c92 0 150 42 150 114c0 63 -60 119 -151 119c-93 0 -150 -46 -150 -118z" />
    <glyph glyph-name="zero.tf" 
d="M360 -15c-197 0 -340 144 -340 365s143 365 340 365s340 -144 340 -365s-143 -365 -340 -365zM360 119c111 0 187 82 187 231s-76 231 -187 231s-187 -82 -187 -231s76 -231 187 -231z" />
    <glyph glyph-name="zero.zero.tf" 
d="M360 715c196 0 340 -144 340 -365s-144 -365 -340 -365c-197 0 -340 144 -340 365s143 365 340 365zM361 590c-115 0 -196 -85 -196 -240c0 -65 14 -118 40 -158l226 386c-21 8 -45 12 -70 12zM361 110c115 0 194 85 194 240c0 69 -16 124 -43 164l-228 -389
c23 -10 49 -15 77 -15z" />
    <glyph glyph-name="one.tf" 
d="M442 700v-566h202v-134h-569v134h214v405l-209 -112v155l222 118h140z" />
    <glyph glyph-name="two.tf" 
d="M251 185c-13 -13 -17 -24 -18 -51h416v-134h-582v105c0 64 17 112 53 150c42 45 101 78 197 110c147 48 188 77 188 131c0 51 -49 85 -121 85c-97 0 -155 -50 -170 -143l-149 14c13 158 137 263 319 263c159 0 273 -92 273 -218c0 -120 -77 -189 -250 -242
c-91 -28 -134 -48 -156 -70z" />
    <glyph glyph-name="three.tf" 
d="M372 -15c-176 0 -298 93 -319 245l149 29c15 -96 71 -143 170 -143c88 0 141 37 141 99c0 60 -42 89 -131 89h-85v115h84c76 0 118 28 118 77c0 54 -49 88 -128 88c-90 0 -144 -40 -162 -120l-149 25c25 141 142 226 311 226c163 0 278 -82 278 -200
c0 -58 -29 -103 -89 -138v-2c64 -29 106 -97 106 -169c0 -133 -118 -221 -294 -221z" />
    <glyph glyph-name="four.tf" 
d="M594 0h-153v116h-416v142l316 442h253v-442h101v-142h-101v-116zM439 601l-246 -343h248v343h-2z" />
    <glyph glyph-name="five.tf" 
d="M365 -15c-166 0 -280 70 -319 197l141 50c29 -84 99 -113 178 -113c97 0 156 48 156 119c0 66 -56 119 -158 119c-69 0 -121 -28 -166 -66l-143 40l64 369h483v-134h-366l-21 -133l2 -1c47 30 106 46 172 46c169 0 286 -102 286 -241c0 -154 -119 -252 -309 -252z" />
    <glyph glyph-name="six.tf" 
d="M397 466c163 0 284 -103 284 -238c0 -144 -127 -243 -303 -243c-215 0 -343 135 -343 358s136 372 337 372c148 0 257 -72 293 -192l-142 -38c-20 65 -73 99 -146 99c-107 0 -172 -67 -183 -187h3c44 41 116 69 200 69zM378 116c95 0 154 43 154 114
c0 74 -57 119 -154 119s-160 -47 -160 -118c0 -69 66 -115 160 -115z" />
    <glyph glyph-name="seven.tf" 
d="M347 0h-176l296 559v2h-397v139h579v-121z" />
    <glyph glyph-name="eight.tf" 
d="M362 -15c-194 0 -326 91 -326 220c0 82 50 148 136 184v2c-60 31 -92 77 -92 134c0 111 118 190 282 190c165 0 283 -79 283 -190c0 -57 -31 -103 -93 -134v-2c88 -36 137 -102 137 -184c0 -129 -131 -220 -327 -220zM362 436c80 0 128 29 128 79c0 46 -47 76 -128 76
c-80 0 -127 -30 -127 -76c0 -50 48 -79 127 -79zM362 125c108 0 164 39 164 92c0 59 -60 98 -164 98c-103 0 -164 -39 -164 -98c0 -54 57 -92 164 -92z" />
    <glyph glyph-name="nine.tf" 
d="M349 715c199 0 314 -124 314 -338c0 -262 -105 -392 -299 -392c-145 0 -242 70 -276 188l139 42c24 -72 64 -103 136 -103c87 0 139 59 147 177h-1c-39 -35 -98 -56 -176 -56c-169 0 -279 98 -279 238s119 244 295 244zM201 470c0 -71 57 -115 152 -115
c92 0 149 42 149 114c0 63 -60 119 -150 119c-93 0 -151 -46 -151 -118z" />
    <glyph glyph-name="uni2080" unicode="&#x2080;" horiz-adv-x="466" 
d="M232 -159c-127 0 -208 95 -208 219s81 219 208 219c129 0 209 -95 209 -219s-80 -219 -209 -219zM232 -65c66 0 102 49 102 125s-36 125 -102 125c-64 0 -101 -49 -101 -125s37 -125 101 -125z" />
    <glyph glyph-name="uni2081" unicode="&#x2081;" horiz-adv-x="335" 
d="M270 -150h-107v310l-144 -76v107l152 79h99v-420z" />
    <glyph glyph-name="uni2082" unicode="&#x2082;" horiz-adv-x="424" 
d="M158 -32c-7 -6 -11 -13 -12 -24h248v-94h-363v67c0 44 12 77 36 101c25 24 63 42 118 58c83 24 109 40 109 68c0 26 -28 43 -70 43c-53 0 -90 -29 -96 -76l-104 9c9 96 87 159 200 159c103 0 176 -56 176 -134c0 -75 -45 -114 -170 -149c-41 -11 -61 -19 -72 -28z" />
    <glyph glyph-name="uni2083" unicode="&#x2083;" horiz-adv-x="426" 
d="M220 -159c-108 0 -185 55 -201 146l105 23c12 -53 45 -79 96 -79c47 0 76 19 76 51c0 31 -20 44 -68 44h-54v80h48c39 0 60 14 60 40c0 27 -26 44 -67 44c-47 0 -79 -24 -88 -64l-100 18c17 83 87 135 188 135c100 0 171 -52 171 -128c0 -33 -17 -60 -47 -77v-1
c40 -19 63 -53 63 -98c0 -82 -71 -134 -182 -134z" />
    <glyph glyph-name="uni2084" unicode="&#x2084;" horiz-adv-x="448" 
d="M377 -150h-107v67h-260v95l190 258h177v-258h61v-95h-61v-67zM269 203l-142 -191h143v191h-1z" />
    <glyph glyph-name="uni2085" unicode="&#x2085;" horiz-adv-x="441" 
d="M225 -159c-98 0 -167 43 -201 102l87 53c26 -43 59 -62 113 -62c50 0 86 26 86 62c0 39 -34 65 -86 65c-44 0 -77 -14 -104 -37l-91 26l46 220h295v-91h-216l-14 -59l1 -1c28 13 60 19 96 19c107 0 179 -59 179 -143c0 -86 -77 -154 -191 -154z" />
    <glyph glyph-name="uni2086" unicode="&#x2086;" horiz-adv-x="454" 
d="M256 130c103 0 174 -57 174 -141c0 -88 -77 -148 -187 -148c-137 0 -219 83 -219 217c0 131 87 221 212 221c89 0 155 -40 177 -106l-104 -29c-12 31 -36 46 -73 46c-57 0 -95 -40 -99 -99h1c27 24 70 39 118 39zM238 -69c53 0 85 23 85 60c0 38 -32 61 -85 61
c-54 0 -85 -26 -85 -62s31 -59 85 -59z" />
    <glyph glyph-name="uni2087" unicode="&#x2087;" horiz-adv-x="358" 
d="M175 -150h-126l185 323v1h-234v96h363v-82z" />
    <glyph glyph-name="uni2088" unicode="&#x2088;" horiz-adv-x="445" 
d="M223 -159c-126 0 -199 62 -199 133c0 50 36 91 78 109v1c-29 14 -52 44 -52 79c0 70 74 116 173 116c98 0 172 -46 172 -116c0 -35 -23 -65 -52 -79v-1c42 -18 78 -59 78 -109c0 -71 -72 -133 -198 -133zM223 113c43 0 71 17 71 43c0 27 -28 43 -71 43
c-44 0 -72 -16 -72 -43c0 -26 28 -43 72 -43zM223 -69c59 0 89 21 89 54s-33 55 -89 55c-57 0 -89 -22 -89 -55s29 -54 89 -54z" />
    <glyph glyph-name="uni2089" unicode="&#x2089;" horiz-adv-x="444" 
d="M214 279c129 0 205 -87 205 -213c0 -143 -75 -225 -198 -225c-81 0 -140 31 -174 90l86 47c19 -34 44 -51 88 -51c47 0 83 36 88 91h-1c-24 -17 -60 -28 -106 -28c-104 0 -178 58 -178 140c0 90 76 149 190 149zM131 133c0 -38 32 -61 85 -61s85 23 85 61
c0 37 -33 60 -85 60c-53 0 -85 -23 -85 -60z" />
    <glyph glyph-name="zero.dnom" horiz-adv-x="466" 
d="M232 -9c-127 0 -208 95 -208 219s81 219 208 219c129 0 209 -95 209 -219s-80 -219 -209 -219zM232 85c66 0 102 49 102 125s-36 125 -102 125c-64 0 -101 -49 -101 -125s37 -125 101 -125z" />
    <glyph glyph-name="one.dnom" horiz-adv-x="335" 
d="M270 0h-107v310l-144 -76v107l152 79h99v-420z" />
    <glyph glyph-name="two.dnom" horiz-adv-x="424" 
d="M158 118c-7 -6 -11 -13 -12 -24h248v-94h-363v67c0 44 12 77 36 101c25 24 63 42 118 58c83 24 109 40 109 68c0 26 -28 43 -70 43c-53 0 -90 -29 -96 -76l-104 9c9 96 87 159 200 159c103 0 176 -56 176 -134c0 -75 -45 -114 -170 -149c-41 -11 -61 -19 -72 -28z" />
    <glyph glyph-name="three.dnom" horiz-adv-x="426" 
d="M220 -9c-108 0 -185 55 -201 146l105 23c12 -53 45 -79 96 -79c47 0 76 19 76 51c0 31 -20 44 -68 44h-54v80h48c39 0 60 14 60 40c0 27 -26 44 -67 44c-47 0 -79 -24 -88 -64l-100 18c17 83 88 135 188 135s171 -52 171 -128c0 -33 -17 -60 -47 -77v-1
c40 -19 63 -53 63 -98c0 -82 -71 -134 -182 -134z" />
    <glyph glyph-name="four.dnom" horiz-adv-x="448" 
d="M377 0h-107v67h-260v95l190 258h177v-258h61v-95h-61v-67zM269 353l-142 -191h143v191h-1z" />
    <glyph glyph-name="five.dnom" horiz-adv-x="441" 
d="M225 -9c-98 0 -167 43 -201 102l87 53c26 -43 59 -62 113 -62c50 0 86 26 86 62c0 39 -34 65 -86 65c-44 0 -77 -14 -104 -37l-91 26l46 220h295v-91h-216l-14 -59l1 -1c28 13 60 19 96 19c107 0 179 -59 179 -143c0 -86 -77 -154 -191 -154z" />
    <glyph glyph-name="six.dnom" horiz-adv-x="454" 
d="M256 280c103 0 174 -57 174 -141c0 -88 -77 -148 -187 -148c-137 0 -219 83 -219 217c0 131 87 221 212 221c89 0 155 -40 177 -106l-104 -29c-12 31 -36 46 -73 46c-57 0 -95 -40 -99 -99h1c27 24 70 39 118 39zM238 81c53 0 85 23 85 60c0 38 -32 61 -85 61
c-54 0 -85 -26 -85 -62s31 -59 85 -59z" />
    <glyph glyph-name="seven.dnom" horiz-adv-x="358" 
d="M175 0h-126l185 323v1h-234v96h363v-82z" />
    <glyph glyph-name="eight.dnom" horiz-adv-x="445" 
d="M223 -9c-126 0 -199 62 -199 133c0 50 36 91 78 109v1c-29 14 -52 44 -52 79c0 70 74 116 173 116c98 0 172 -46 172 -116c0 -35 -23 -65 -52 -79v-1c42 -18 78 -59 78 -109c0 -71 -72 -133 -198 -133zM223 263c43 0 71 17 71 43c0 27 -28 43 -71 43
c-44 0 -72 -16 -72 -43c0 -26 28 -43 72 -43zM223 81c59 0 89 21 89 54s-33 55 -89 55c-57 0 -89 -22 -89 -55s29 -54 89 -54z" />
    <glyph glyph-name="nine.dnom" horiz-adv-x="444" 
d="M214 429c129 0 205 -87 205 -213c0 -143 -75 -225 -198 -225c-81 0 -140 31 -174 90l86 47c19 -34 44 -51 88 -51c47 0 83 36 88 91h-1c-24 -17 -60 -28 -106 -28c-104 0 -178 58 -178 140c0 90 76 149 190 149zM131 283c0 -38 32 -61 85 -61s85 23 85 61
c0 37 -33 60 -85 60c-53 0 -85 -23 -85 -60z" />
    <glyph glyph-name="zero.numr" horiz-adv-x="466" 
d="M232 271c-127 0 -208 95 -208 219s81 219 208 219c129 0 209 -95 209 -219s-80 -219 -209 -219zM232 365c66 0 102 49 102 125s-36 125 -102 125c-64 0 -101 -49 -101 -125s37 -125 101 -125z" />
    <glyph glyph-name="one.numr" horiz-adv-x="335" 
d="M270 280h-107v310l-144 -76v107l152 79h99v-420z" />
    <glyph glyph-name="two.numr" horiz-adv-x="424" 
d="M158 398c-7 -6 -11 -13 -12 -24h248v-94h-363v67c0 44 12 77 36 101c25 24 63 42 118 58c83 24 109 40 109 68c0 26 -28 43 -70 43c-53 0 -90 -29 -96 -76l-104 9c9 96 87 159 200 159c103 0 176 -56 176 -134c0 -75 -45 -114 -170 -149c-41 -11 -61 -19 -72 -28z" />
    <glyph glyph-name="three.numr" horiz-adv-x="426" 
d="M220 271c-108 0 -185 55 -201 146l105 23c12 -53 45 -79 96 -79c47 0 76 19 76 51c0 31 -20 44 -68 44h-54v80h48c39 0 60 14 60 40c0 27 -26 44 -67 44c-47 0 -79 -24 -88 -64l-100 18c17 83 87 135 188 135c100 0 171 -52 171 -128c0 -33 -17 -60 -47 -77v-1
c40 -19 63 -53 63 -98c0 -82 -71 -134 -182 -134z" />
    <glyph glyph-name="four.numr" horiz-adv-x="448" 
d="M377 280h-107v67h-260v95l190 258h177v-258h61v-95h-61v-67zM269 633l-142 -191h143v191h-1z" />
    <glyph glyph-name="five.numr" horiz-adv-x="441" 
d="M225 271c-98 0 -167 43 -201 102l87 53c26 -43 59 -62 113 -62c50 0 86 26 86 62c0 39 -34 65 -86 65c-44 0 -77 -14 -104 -37l-91 26l46 220h295v-91h-216l-14 -59l1 -1c28 13 60 19 96 19c107 0 179 -59 179 -143c0 -86 -77 -154 -191 -154z" />
    <glyph glyph-name="six.numr" horiz-adv-x="454" 
d="M256 560c103 0 174 -57 174 -141c0 -88 -77 -148 -187 -148c-137 0 -219 83 -219 217c0 131 87 221 212 221c89 0 155 -40 177 -106l-104 -29c-12 31 -36 46 -73 46c-57 0 -95 -40 -99 -99h1c27 24 70 39 118 39zM238 361c53 0 85 23 85 60c0 38 -32 61 -85 61
c-54 0 -85 -26 -85 -62s31 -59 85 -59z" />
    <glyph glyph-name="seven.numr" horiz-adv-x="358" 
d="M175 280h-126l185 323v1h-234v96h363v-82z" />
    <glyph glyph-name="eight.numr" horiz-adv-x="445" 
d="M223 271c-126 0 -199 62 -199 133c0 50 36 91 78 109v1c-29 14 -52 44 -52 79c0 70 74 116 173 116c98 0 172 -46 172 -116c0 -35 -23 -65 -52 -79v-1c42 -18 78 -59 78 -109c0 -71 -72 -133 -198 -133zM223 543c43 0 71 17 71 43c0 27 -28 43 -71 43
c-44 0 -72 -16 -72 -43c0 -26 28 -43 72 -43zM223 361c59 0 89 21 89 54s-33 55 -89 55c-57 0 -89 -22 -89 -55s29 -54 89 -54z" />
    <glyph glyph-name="nine.numr" horiz-adv-x="444" 
d="M214 709c129 0 205 -87 205 -213c0 -143 -75 -225 -198 -225c-81 0 -140 31 -174 90l86 47c19 -34 44 -51 88 -51c47 0 83 36 88 91h-1c-24 -17 -60 -28 -106 -28c-104 0 -178 58 -178 140c0 90 76 149 190 149zM131 563c0 -38 32 -61 85 -61s85 23 85 61
c0 37 -33 60 -85 60c-53 0 -85 -23 -85 -60z" />
    <glyph glyph-name="uni2070" unicode="&#x2070;" horiz-adv-x="466" 
d="M232 371c-127 0 -208 95 -208 219s81 219 208 219c129 0 209 -95 209 -219s-80 -219 -209 -219zM232 465c66 0 102 49 102 125s-36 125 -102 125c-64 0 -101 -49 -101 -125s37 -125 101 -125z" />
    <glyph glyph-name="uni00B9" unicode="&#xb9;" horiz-adv-x="335" 
d="M270 380h-107v310l-144 -76v107l152 79h99v-420z" />
    <glyph glyph-name="uni00B2" unicode="&#xb2;" horiz-adv-x="424" 
d="M158 498c-7 -6 -11 -13 -12 -24h248v-94h-363v67c0 44 12 77 36 101c25 24 63 42 118 58c83 24 109 40 109 68c0 26 -28 43 -70 43c-53 0 -90 -29 -96 -76l-104 9c9 96 87 159 200 159c103 0 176 -56 176 -134c0 -75 -45 -114 -170 -149c-41 -11 -61 -19 -72 -28z" />
    <glyph glyph-name="uni00B3" unicode="&#xb3;" horiz-adv-x="426" 
d="M220 371c-108 0 -185 55 -201 146l105 23c12 -53 45 -79 96 -79c47 0 76 19 76 51c0 31 -20 44 -68 44h-54v80h48c39 0 60 14 60 40c0 27 -26 44 -67 44c-47 0 -79 -24 -88 -64l-100 18c17 83 87 135 188 135c100 0 171 -52 171 -128c0 -33 -17 -60 -47 -77v-1
c40 -19 63 -53 63 -98c0 -82 -71 -134 -182 -134z" />
    <glyph glyph-name="uni2074" unicode="&#x2074;" horiz-adv-x="448" 
d="M377 380h-107v67h-260v95l190 258h177v-258h61v-95h-61v-67zM269 733l-142 -191h143v191h-1z" />
    <glyph glyph-name="uni2075" unicode="&#x2075;" horiz-adv-x="441" 
d="M225 371c-98 0 -167 43 -201 102l87 53c26 -43 59 -62 113 -62c50 0 86 26 86 62c0 39 -34 65 -86 65c-44 0 -77 -14 -104 -37l-91 26l46 220h295v-91h-216l-14 -59l1 -1c28 13 60 19 96 19c107 0 179 -59 179 -143c0 -86 -77 -154 -191 -154z" />
    <glyph glyph-name="uni2076" unicode="&#x2076;" horiz-adv-x="454" 
d="M256 660c103 0 174 -57 174 -141c0 -88 -77 -148 -187 -148c-137 0 -219 83 -219 217c0 131 87 221 212 221c89 0 155 -40 177 -106l-104 -29c-12 31 -36 46 -73 46c-57 0 -95 -40 -99 -99h1c27 24 70 39 118 39zM238 461c53 0 85 23 85 60c0 38 -32 61 -85 61
c-54 0 -85 -26 -85 -62s31 -59 85 -59z" />
    <glyph glyph-name="uni2077" unicode="&#x2077;" horiz-adv-x="358" 
d="M175 380h-126l185 323v1h-234v96h363v-82z" />
    <glyph glyph-name="uni2078" unicode="&#x2078;" horiz-adv-x="445" 
d="M223 371c-126 0 -199 62 -199 133c0 50 36 91 78 109v1c-29 14 -52 44 -52 79c0 70 74 116 173 116c98 0 172 -46 172 -116c0 -35 -23 -65 -52 -79v-1c42 -18 78 -59 78 -109c0 -71 -72 -133 -198 -133zM223 643c43 0 71 17 71 43c0 27 -28 43 -71 43
c-44 0 -72 -16 -72 -43c0 -26 28 -43 72 -43zM223 461c59 0 89 21 89 54s-33 55 -89 55c-57 0 -89 -22 -89 -55s29 -54 89 -54z" />
    <glyph glyph-name="uni2079" unicode="&#x2079;" horiz-adv-x="444" 
d="M214 809c129 0 205 -87 205 -213c0 -143 -75 -225 -198 -225c-81 0 -140 31 -174 90l86 47c19 -34 44 -51 88 -51c47 0 83 36 88 91h-1c-24 -17 -60 -28 -106 -28c-104 0 -178 58 -178 140c0 90 76 149 190 149zM131 663c0 -38 32 -61 85 -61s85 23 85 61
c0 37 -33 60 -85 60c-53 0 -85 -23 -85 -60z" />
    <glyph glyph-name="fraction" unicode="&#x2044;" horiz-adv-x="215" 
d="M396 719l-484 -801l-93 54l484 802z" />
    <glyph glyph-name="onehalf" unicode="&#xbd;" horiz-adv-x="974" 
d="M154 -28l484 802l93 -55l-484 -801zM270 280h-107v310l-144 -76v107l152 79h99v-420zM708 118c-7 -6 -11 -13 -12 -24h248v-94h-363v67c0 44 12 77 36 101c25 24 63 42 118 58c83 24 109 40 109 68c0 26 -28 43 -70 43c-53 0 -90 -29 -96 -76l-104 9c9 96 87 159 200 159
c103 0 176 -56 176 -134c0 -75 -45 -114 -170 -149c-41 -11 -61 -19 -72 -28z" />
    <glyph glyph-name="uni2153" unicode="&#x2153;" horiz-adv-x="976" 
d="M731 719l-484 -801l-93 54l484 802zM270 280h-107v310l-144 -76v107l152 79h99v-420zM770 -9c-108 0 -185 55 -201 146l105 23c12 -53 45 -79 96 -79c47 0 76 19 76 51c0 31 -20 44 -68 44h-54v80h48c39 0 60 14 60 40c0 27 -26 44 -67 44c-47 0 -79 -24 -88 -64l-100 18
c17 83 88 135 188 135s171 -52 171 -128c0 -33 -17 -60 -47 -77v-1c40 -19 63 -53 63 -98c0 -82 -71 -134 -182 -134z" />
    <glyph glyph-name="uni2154" unicode="&#x2154;" horiz-adv-x="1065" 
d="M243 -28l484 802l93 -55l-484 -801zM185 506c83 24 109 40 109 68c0 26 -28 43 -70 43c-53 0 -90 -29 -96 -76l-104 9c9 96 87 159 200 159c103 0 176 -56 176 -134c0 -75 -45 -114 -170 -149c-41 -11 -61 -19 -72 -28c-7 -6 -11 -13 -12 -24h248v-94h-363v67
c0 44 12 77 36 101c25 24 63 42 118 58zM978 224v-1c40 -19 63 -53 63 -98c0 -82 -71 -134 -182 -134c-108 0 -185 55 -201 146l105 23c12 -53 45 -79 96 -79c47 0 76 19 76 51c0 31 -20 44 -68 44h-54v80h48c39 0 60 14 60 40c0 27 -26 44 -67 44c-47 0 -79 -24 -88 -64
l-100 18c17 83 88 135 188 135s171 -52 171 -128c0 -33 -17 -60 -47 -77z" />
    <glyph glyph-name="onequarter" unicode="&#xbc;" horiz-adv-x="967" 
d="M731 719l-484 -801l-93 54l484 802zM270 280h-107v310l-144 -76v107l152 79h99v-420zM896 0h-107v67h-260v95l190 258h177v-258h61v-95h-61v-67zM788 353l-142 -191h143v191h-1z" />
    <glyph glyph-name="threequarters" unicode="&#xbe;" horiz-adv-x="1058" 
d="M822 719l-484 -801l-93 54l484 802zM220 271c-108 0 -185 55 -201 146l105 23c12 -53 45 -79 96 -79c47 0 76 19 76 51c0 31 -20 44 -68 44h-54v80h48c39 0 60 14 60 40c0 27 -26 44 -67 44c-47 0 -79 -24 -88 -64l-100 18c17 83 87 135 188 135c100 0 171 -52 171 -128
c0 -33 -17 -60 -47 -77v-1c40 -19 63 -53 63 -98c0 -82 -71 -134 -182 -134zM987 0h-107v67h-260v95l190 258h177v-258h61v-95h-61v-67zM879 353l-142 -191h143v191h-1z" />
    <glyph glyph-name="oneeighth" unicode="&#x215b;" horiz-adv-x="995" 
d="M731 719l-484 -801l-93 54l484 802zM270 280h-107v310l-144 -76v107l152 79h99v-420zM773 -9c-126 0 -199 62 -199 133c0 50 36 91 78 109v1c-29 14 -52 44 -52 79c0 70 74 116 173 116c98 0 172 -46 172 -116c0 -35 -23 -65 -52 -79v-1c42 -18 78 -59 78 -109
c0 -71 -72 -133 -198 -133zM773 263c43 0 71 17 71 43c0 27 -28 43 -71 43c-44 0 -72 -16 -72 -43c0 -26 28 -43 72 -43zM773 81c59 0 89 21 89 54s-33 55 -89 55c-57 0 -89 -22 -89 -55s29 -54 89 -54z" />
    <glyph glyph-name="threeeighths" unicode="&#x215c;" horiz-adv-x="1086" 
d="M822 719l-484 -801l-93 54l484 802zM220 271c-108 0 -185 55 -201 146l105 23c12 -53 45 -79 96 -79c47 0 76 19 76 51c0 31 -20 44 -68 44h-54v80h48c39 0 60 14 60 40c0 27 -26 44 -67 44c-47 0 -79 -24 -88 -64l-100 18c17 83 87 135 188 135c100 0 171 -52 171 -128
c0 -33 -17 -60 -47 -77v-1c40 -19 63 -53 63 -98c0 -82 -71 -134 -182 -134zM864 -9c-126 0 -199 62 -199 133c0 50 36 91 78 109v1c-29 14 -52 44 -52 79c0 70 74 116 173 116c98 0 172 -46 172 -116c0 -35 -23 -65 -52 -79v-1c42 -18 78 -59 78 -109
c0 -71 -72 -133 -198 -133zM864 263c43 0 71 17 71 43c0 27 -28 43 -71 43c-44 0 -72 -16 -72 -43c0 -26 28 -43 72 -43zM864 81c59 0 89 21 89 54s-33 55 -89 55c-57 0 -89 -22 -89 -55s29 -54 89 -54z" />
    <glyph glyph-name="fiveeighths" unicode="&#x215d;" horiz-adv-x="1101" 
d="M837 719l-484 -801l-93 54l484 802zM225 271c-98 0 -167 43 -201 102l87 53c26 -43 59 -62 113 -62c50 0 86 26 86 62c0 39 -34 65 -86 65c-44 0 -77 -14 -104 -37l-91 26l46 220h295v-91h-216l-14 -59l1 -1c28 13 60 19 96 19c107 0 179 -59 179 -143
c0 -86 -77 -154 -191 -154zM879 -9c-126 0 -199 62 -199 133c0 50 36 91 78 109v1c-29 14 -52 44 -52 79c0 70 74 116 173 116c98 0 172 -46 172 -116c0 -35 -23 -65 -52 -79v-1c42 -18 78 -59 78 -109c0 -71 -72 -133 -198 -133zM879 263c43 0 71 17 71 43
c0 27 -28 43 -71 43c-44 0 -72 -16 -72 -43c0 -26 28 -43 72 -43zM879 81c59 0 89 21 89 54s-33 55 -89 55c-57 0 -89 -22 -89 -55s29 -54 89 -54z" />
    <glyph glyph-name="seveneighths" unicode="&#x215e;" horiz-adv-x="987" 
d="M723 719l-484 -801l-93 54l484 802zM175 280h-126l185 323v1h-234v96h363v-82zM765 -9c-126 0 -199 62 -199 133c0 50 36 91 78 109v1c-29 14 -52 44 -52 79c0 70 74 116 173 116c98 0 172 -46 172 -116c0 -35 -23 -65 -52 -79v-1c42 -18 78 -59 78 -109
c0 -71 -72 -133 -198 -133zM765 263c43 0 71 17 71 43c0 27 -28 43 -71 43c-44 0 -72 -16 -72 -43c0 -26 28 -43 72 -43zM765 81c59 0 89 21 89 54s-33 55 -89 55c-57 0 -89 -22 -89 -55s29 -54 89 -54z" />
    <glyph glyph-name="period" unicode="." horiz-adv-x="323" 
d="M244 0h-165v160h165v-160z" />
    <glyph glyph-name="comma" unicode="," horiz-adv-x="323" 
d="M85 -148v75c41 12 53 31 53 73h-59v149h165v-131c0 -98 -54 -154 -159 -166z" />
    <glyph glyph-name="colon" unicode=":" horiz-adv-x="323" 
d="M244 322h-165v160h165v-160zM244 0h-165v160h165v-160z" />
    <glyph glyph-name="semicolon" unicode=";" horiz-adv-x="323" 
d="M244 322h-165v160h165v-160zM85 -148v75c41 12 53 31 53 73h-59v149h165v-131c0 -98 -54 -154 -159 -166z" />
    <glyph glyph-name="ellipsis" unicode="&#x2026;" horiz-adv-x="871" 
d="M244 0h-165v160h165v-160zM518 0h-165v160h165v-160zM792 0h-165v160h165v-160z" />
    <glyph glyph-name="exclam" unicode="!" horiz-adv-x="403" 
d="M279 242h-153v458h153v-458zM284 0h-165v160h165v-160z" />
    <glyph glyph-name="exclamdown" unicode="&#xa1;" horiz-adv-x="323" 
d="M79 370v160h165v-160h-165zM86 -170v458h153v-458h-153z" />
    <glyph glyph-name="question" unicode="?" horiz-adv-x="699" 
d="M384 220h-138v59c0 62 32 99 115 134c85 36 107 56 107 91c0 47 -47 78 -122 78c-79 0 -133 -50 -139 -133l-148 13c9 156 120 253 297 253c152 0 274 -88 274 -208c0 -88 -64 -140 -171 -183c-58 -24 -75 -42 -75 -80v-24zM401 0h-165v157h165v-157z" />
    <glyph glyph-name="questiondown" unicode="&#xbf;" horiz-adv-x="699" 
d="M299 530h164v-157h-164v157zM315 310h138v-59c0 -62 -32 -99 -115 -134c-84 -36 -106 -56 -106 -91c0 -47 46 -78 121 -78c79 0 133 50 139 133l148 -13c-9 -156 -120 -253 -296 -253c-153 0 -275 88 -275 208c0 88 64 140 171 183c58 24 75 42 75 80v24z" />
    <glyph glyph-name="periodcentered" unicode="&#xb7;" horiz-adv-x="263" 
d="M214 299h-165v159h165v-159z" />
    <glyph glyph-name="bullet" unicode="&#x2022;" horiz-adv-x="411" 
d="M205 241c-75 0 -126 55 -126 128c0 74 51 128 126 128c76 0 127 -54 127 -128c0 -73 -50 -128 -127 -128z" />
    <glyph glyph-name="asterisk" unicode="*" horiz-adv-x="501" 
d="M251 432l-100 -118l-76 65l88 104l-114 64l50 88l101 -60v125h101v-125l101 60l50 -88l-113 -64l87 -104l-74 -65z" />
    <glyph glyph-name="numbersign" unicode="#" horiz-adv-x="883" 
d="M834 546l-22 -122h-143l-25 -142h144l-21 -122h-145l-28 -160h-137l28 160h-155l-28 -160h-138l28 160h-143l22 122h143l25 142h-145l22 122h145l27 154h138l-27 -154h155l27 154h137l-27 -154h143zM352 282h155l25 142h-155z" />
    <glyph glyph-name="slash" unicode="/" horiz-adv-x="556" 
d="M552 715l-460 -783l-88 53l461 785z" />
    <glyph glyph-name="backslash" unicode="\" horiz-adv-x="556" 
d="M552 -15l-88 -53l-460 783l87 55z" />
    <glyph glyph-name="exclamdown.case" horiz-adv-x="403" 
d="M119 540v160h165v-160h-165zM126 0v458h153v-458h-153z" />
    <glyph glyph-name="questiondown.case" horiz-adv-x="699" 
d="M299 700h164v-157h-164v157zM315 480h138v-59c0 -62 -32 -99 -115 -134c-84 -36 -106 -56 -106 -91c0 -47 46 -77 121 -77c79 0 133 49 139 132l148 -13c-9 -156 -120 -253 -296 -253c-153 0 -275 88 -275 208c0 88 64 140 171 183c58 24 75 42 75 80v24z" />
    <glyph glyph-name="parenleft" unicode="(" horiz-adv-x="378" 
d="M369 -131l-88 -66c-132 149 -202 315 -202 492s70 343 202 492l88 -66c-110 -142 -157 -269 -157 -426s47 -284 157 -426z" />
    <glyph glyph-name="parenright" unicode=")" horiz-adv-x="378" 
d="M97 -197l-88 66c110 142 157 269 157 426s-47 284 -157 426l88 66c133 -149 202 -315 202 -492s-69 -343 -202 -492z" />
    <glyph glyph-name="braceleft" unicode="{" horiz-adv-x="425" 
d="M406 -182h-101c-118 0 -164 45 -164 157v170c0 45 -12 59 -54 59h-28v161h28c42 0 54 14 54 59v149c0 112 46 157 164 157h101v-124h-83c-44 0 -58 -18 -58 -70v-150c0 -58 -37 -101 -86 -101v-2c49 0 86 -43 86 -101v-169c0 -53 14 -70 58 -70h83v-125z" />
    <glyph glyph-name="braceright" unicode="}" horiz-adv-x="425" 
d="M121 -182h-102v125h84c44 0 58 17 58 70v169c0 58 37 101 85 101v2c-48 0 -85 43 -85 101v150c0 52 -14 70 -58 70h-84v124h102c117 0 163 -45 163 -157v-149c0 -45 12 -59 54 -59h28v-161h-28c-42 0 -54 -14 -54 -59v-170c0 -112 -46 -157 -163 -157z" />
    <glyph glyph-name="bracketleft" unicode="[" horiz-adv-x="353" 
d="M334 -182h-265v912h265v-119h-141v-673h141v-120z" />
    <glyph glyph-name="bracketright" unicode="]" horiz-adv-x="353" 
d="M284 730v-912h-265v120h142v673h-142v119h265z" />
    <glyph glyph-name="parenleft.case" horiz-adv-x="378" 
d="M369 -81l-88 -66c-132 149 -202 315 -202 492s70 343 202 492l88 -66c-110 -142 -157 -269 -157 -426s47 -284 157 -426z" />
    <glyph glyph-name="parenright.case" horiz-adv-x="378" 
d="M97 -147l-88 66c110 142 157 269 157 426s-47 284 -157 426l88 66c133 -149 202 -315 202 -492s-69 -343 -202 -492z" />
    <glyph glyph-name="braceleft.case" horiz-adv-x="425" 
d="M406 -132h-101c-118 0 -164 45 -164 157v170c0 45 -12 59 -54 59h-28v161h28c42 0 54 14 54 59v149c0 112 46 157 164 157h101v-124h-83c-44 0 -58 -18 -58 -70v-150c0 -58 -37 -101 -86 -101v-2c49 0 86 -43 86 -101v-169c0 -53 14 -70 58 -70h83v-125z" />
    <glyph glyph-name="braceright.case" horiz-adv-x="425" 
d="M121 -132h-102v125h84c44 0 58 17 58 70v169c0 58 37 101 85 101v2c-48 0 -85 43 -85 101v150c0 52 -14 70 -58 70h-84v124h102c117 0 163 -45 163 -157v-149c0 -45 12 -59 54 -59h28v-161h-28c-42 0 -54 -14 -54 -59v-170c0 -112 -46 -157 -163 -157z" />
    <glyph glyph-name="bracketleft.case" horiz-adv-x="353" 
d="M334 -132h-265v912h265v-119h-141v-673h141v-120z" />
    <glyph glyph-name="bracketright.case" horiz-adv-x="353" 
d="M284 780v-912h-265v120h142v673h-142v119h265z" />
    <glyph glyph-name="hyphen" unicode="-" horiz-adv-x="354" 
d="M315 224h-276v135h276v-135z" />
    <glyph glyph-name="uni00AD" unicode="&#xad;" horiz-adv-x="354" 
d="M315 224h-276v135h276v-135z" />
    <glyph glyph-name="endash" unicode="&#x2013;" horiz-adv-x="559" 
d="M519 224h-480v135h480v-135z" />
    <glyph glyph-name="emdash" unicode="&#x2014;" horiz-adv-x="844" 
d="M804 224h-765v135h765v-135z" />
    <glyph glyph-name="underscore" unicode="_" horiz-adv-x="605" 
d="M565 -181h-526v112h526v-112z" />
    <glyph glyph-name="hyphen.case" horiz-adv-x="354" 
d="M315 289h-276v135h276v-135z" />
    <glyph glyph-name="uni00AD.case" horiz-adv-x="354" 
d="M315 289h-276v135h276v-135z" />
    <glyph glyph-name="endash.case" horiz-adv-x="559" 
d="M519 289h-480v135h480v-135z" />
    <glyph glyph-name="emdash.case" horiz-adv-x="844" 
d="M804 289h-765v135h765v-135z" />
    <glyph glyph-name="quotesinglbase" unicode="&#x201a;" horiz-adv-x="323" 
d="M85 -148v75c41 12 53 31 53 73h-59v149h165v-131c0 -98 -54 -154 -159 -166z" />
    <glyph glyph-name="quotedblbase" unicode="&#x201e;" horiz-adv-x="543" 
d="M85 -148v75c41 12 53 31 53 73h-59v149h165v-131c0 -98 -54 -154 -159 -166zM305 -148v75c41 12 53 31 53 73h-59v149h165v-131c0 -98 -54 -154 -159 -166z" />
    <glyph glyph-name="quotedblleft" unicode="&#x201c;" horiz-adv-x="543" 
d="M238 710v-74c-41 -12 -53 -31 -53 -74h59v-149h-165v131c0 98 54 154 159 166zM458 710v-74c-41 -12 -53 -31 -53 -74h59v-149h-165v131c0 98 54 154 159 166z" />
    <glyph glyph-name="quotedblright" unicode="&#x201d;" horiz-adv-x="543" 
d="M85 403v74c41 12 53 31 53 74h-59v149h165v-132c0 -97 -54 -153 -159 -165zM305 403v74c41 12 53 31 53 74h-59v149h165v-132c0 -97 -54 -153 -159 -165z" />
    <glyph glyph-name="quoteleft" unicode="&#x2018;" horiz-adv-x="283" 
d="M218 710v-74c-41 -12 -53 -31 -53 -74h59v-149h-165v131c0 98 54 154 159 166z" />
    <glyph glyph-name="quoteright" unicode="&#x2019;" horiz-adv-x="283" 
d="M65 403v74c41 12 53 31 53 74h-59v149h165v-132c0 -97 -54 -153 -159 -165z" />
    <glyph glyph-name="guillemotleft" unicode="&#xab;" horiz-adv-x="537" 
d="M293 82h-121l-113 193l113 193h121l-114 -193zM487 82h-121l-112 193l112 193h121l-114 -193z" />
    <glyph glyph-name="guillemotright" unicode="&#xbb;" horiz-adv-x="537" 
d="M283 275l-113 -193h-121l115 193l-115 193h121zM477 275l-112 -193h-121l114 193l-114 193h121z" />
    <glyph glyph-name="guilsinglleft" unicode="&#x2039;" horiz-adv-x="342" 
d="M293 82h-121l-113 193l113 193h121l-114 -193z" />
    <glyph glyph-name="guilsinglright" unicode="&#x203a;" horiz-adv-x="342" 
d="M283 275l-113 -193h-121l115 193l-115 193h121z" />
    <glyph glyph-name="quotedbl" unicode="&#x22;" horiz-adv-x="456" 
d="M197 449h-118v251h118v-251zM377 449h-118v251h118v-251z" />
    <glyph glyph-name="quotesingle" unicode="'" horiz-adv-x="276" 
d="M197 449h-118v251h118v-251z" />
    <glyph glyph-name="guillemotleft.case" horiz-adv-x="537" 
d="M293 132h-121l-113 193l113 193h121l-114 -193zM487 132h-121l-112 193l112 193h121l-114 -193z" />
    <glyph glyph-name="guillemotright.case" horiz-adv-x="537" 
d="M283 325l-113 -193h-121l115 193l-115 193h121zM477 325l-112 -193h-121l114 193l-114 193h121z" />
    <glyph glyph-name="guilsinglleft.case" horiz-adv-x="342" 
d="M293 132h-121l-113 193l113 193h121l-114 -193z" />
    <glyph glyph-name="guilsinglright.case" horiz-adv-x="342" 
d="M283 325l-113 -193h-121l115 193l-115 193h121z" />
    <glyph glyph-name="uni205F" unicode="&#x205f;" horiz-adv-x="222" 
 />
    <glyph glyph-name="uni2001" unicode="&#x2001;" horiz-adv-x="1000" 
 />
    <glyph glyph-name="uni2003" unicode="&#x2003;" horiz-adv-x="1000" 
 />
    <glyph glyph-name="uni2000" unicode="&#x2000;" horiz-adv-x="500" 
 />
    <glyph glyph-name="uni2002" unicode="&#x2002;" horiz-adv-x="500" 
 />
    <glyph glyph-name="uni2007" unicode="&#x2007;" 
 />
    <glyph glyph-name="uni2005" unicode="&#x2005;" horiz-adv-x="250" 
 />
    <glyph glyph-name="uni200A" unicode="&#x200a;" horiz-adv-x="70" 
 />
    <glyph glyph-name="uni202F" unicode="&#x202f;" horiz-adv-x="51" 
 />
    <glyph glyph-name="uni2008" unicode="&#x2008;" horiz-adv-x="323" 
 />
    <glyph glyph-name="uni2006" unicode="&#x2006;" horiz-adv-x="166" 
 />
    <glyph glyph-name="uni00A0" unicode="&#xa0;" horiz-adv-x="255" 
 />
    <glyph glyph-name="uni2009" unicode="&#x2009;" horiz-adv-x="125" 
 />
    <glyph glyph-name="uni2004" unicode="&#x2004;" horiz-adv-x="333" 
 />
    <glyph glyph-name="uni200B" unicode="&#x200b;" horiz-adv-x="0" 
 />
    <glyph glyph-name="uniFEFF" unicode="&#xfeff;" horiz-adv-x="0" 
 />
    <glyph glyph-name="uni0E3F" unicode="&#xe3f;" horiz-adv-x="741" 
d="M603 381v-2c61 -28 98 -87 98 -161c0 -146 -87 -218 -266 -218h-28v-111h-70v111h-258v700h258v101h70v-101h59c122 0 209 -79 209 -188c0 -58 -27 -105 -72 -131zM337 564h-106v-143h106v143zM441 564h-34v-143h34c54 0 82 26 82 72c0 45 -28 71 -82 71zM231 300v-164
h106v164h-106zM407 136h50c64 0 92 28 92 83c0 51 -31 81 -91 81h-51v-164z" />
    <glyph glyph-name="uni20BF" unicode="&#x20bf;" horiz-adv-x="741" 
d="M701 218c0 -139 -79 -211 -242 -218v-111h-71v111h-81v-111h-71v111h-157v700h157v101h71v-101h81v101h71v-101h7c122 0 209 -79 209 -188c0 -58 -27 -105 -72 -131v-2c61 -28 98 -87 98 -161zM441 564h-209v-143h209c53 0 81 26 81 72c0 45 -28 71 -81 71zM232 136h225
c63 0 91 28 91 83c0 51 -31 81 -90 81h-226v-164z" />
    <glyph glyph-name="cent" unicode="&#xa2;" horiz-adv-x="664" 
d="M382 415v-300c56 9 96 41 113 95l135 -39c-29 -102 -125 -173 -248 -184v-98h-70v97c-165 14 -273 129 -273 279s108 265 273 279v87h70v-88c123 -11 219 -82 248 -184l-135 -39c-17 54 -57 86 -113 95zM184 265c0 -81 45 -138 128 -151v302c-83 -13 -128 -70 -128 -151z
" />
    <glyph glyph-name="currency" unicode="&#xa4;" horiz-adv-x="574" 
d="M521 330c0 -56 -16 -106 -44 -146l68 -67l-47 -45l-65 65c-39 -32 -90 -51 -146 -51c-57 0 -107 18 -147 50l-65 -64l-46 44l68 68c-28 40 -44 90 -44 146c0 55 15 105 42 145l-66 66l46 45l63 -63c39 33 91 52 149 52s109 -19 149 -52l63 63l46 -45l-67 -66
c27 -40 43 -90 43 -145zM287 213c62 0 96 42 96 116c0 76 -34 119 -96 119c-63 0 -97 -42 -97 -119c0 -75 34 -116 97 -116z" />
    <glyph glyph-name="dollar" unicode="$" horiz-adv-x="698" 
d="M669 194c0 -126 -112 -207 -291 -209v-96h-71v100c-148 17 -253 96 -278 242l146 29c19 -85 64 -127 132 -142v186c-128 31 -267 72 -267 207c0 122 106 198 267 204v86h71v-89c140 -16 238 -95 265 -206l-144 -35c-18 62 -59 99 -121 112v-158c134 -30 291 -73 291 -231
zM190 512c0 -37 50 -55 117 -71v147c-73 -4 -117 -30 -117 -76zM378 287v-175c92 1 141 32 141 80c0 51 -62 74 -141 95z" />
    <glyph glyph-name="dong" unicode="&#x20ab;" horiz-adv-x="611" 
d="M552 678h49v-84h-49v-445h-124v36h-2c-40 -32 -92 -47 -151 -47c-137 0 -236 85 -236 205c0 119 100 203 236 203c53 0 103 -13 141 -39h2v87h-184v84h184v52h134v-52zM418 326v34c0 44 -56 85 -121 85c-74 0 -124 -43 -124 -102c0 -61 50 -103 124 -103
c65 0 121 40 121 86zM552 1h-463v98h463v-98z" />
    <glyph glyph-name="Euro" unicode="&#x20ac;" horiz-adv-x="875" 
d="M700 274l141 -36c-31 -156 -164 -253 -343 -253c-174 0 -308 94 -358 238h-115v107h95v20c0 9 0 19 1 28h-96v107h118c52 139 184 230 355 230c174 0 307 -93 341 -244l-141 -35c-27 94 -100 147 -200 147c-84 0 -152 -37 -191 -98h232v-107h-267c-1 -9 -1 -18 -1 -28
c0 -7 0 -13 1 -20h208v-107h-178c38 -67 108 -107 196 -107c104 0 179 58 202 158z" />
    <glyph glyph-name="florin" unicode="&#x192;" horiz-adv-x="551" 
d="M526 607h-119c-34 0 -52 -14 -56 -46l-5 -31h176v-126h-199l-79 -451c-18 -103 -88 -155 -196 -155h-103v127h98c34 0 51 14 57 46l75 433h-145v126h168l8 49c17 103 88 155 196 155h124v-127z" />
    <glyph glyph-name="uni20B4" unicode="&#x20b4;" horiz-adv-x="692" 
d="M606 482h46v-107h-613v107h414c6 8 9 17 9 29c0 43 -49 73 -121 73c-76 0 -141 -32 -222 -87l-71 119c99 63 187 98 293 98c170 0 274 -84 274 -184c0 -16 -2 -32 -9 -48zM78 220h-39v107h613v-107h-420c-7 -9 -11 -18 -11 -32c0 -44 48 -73 121 -73c75 0 141 32 222 87
l71 -119c-100 -63 -187 -98 -293 -98c-170 0 -274 84 -274 185c0 16 3 33 10 50z" />
    <glyph glyph-name="uni20BA" unicode="&#x20ba;" horiz-adv-x="683" 
d="M511 365h153c0 -213 -153 -365 -368 -365h-153v287l-77 -28l-37 101l114 41v58l-77 -28l-37 101l114 41v127h153v-71l160 58l37 -100l-197 -72v-59l160 58l37 -100l-197 -72v-208c128 0 215 93 215 231z" />
    <glyph glyph-name="uni20BC" unicode="&#x20bc;" horiz-adv-x="859" 
d="M497 700v-89c176 -24 277 -142 277 -320v-291h-154v285c0 96 -41 164 -123 187v-472h-135v472c-83 -23 -124 -91 -124 -188v-284h-154v291c0 177 101 296 278 320v89h135z" />
    <glyph glyph-name="uni20BD" unicode="&#x20bd;" horiz-adv-x="795" 
d="M129 700h368c148 0 259 -87 259 -229c0 -144 -107 -229 -259 -229h-215v-59h214v-92h-214v-91h-153v91h-100v92h100v59h-100v92h100v366zM282 376h206c66 0 115 34 115 96c0 66 -41 94 -115 94h-206v-190z" />
    <glyph glyph-name="uni20A8" unicode="&#x20a8;" horiz-adv-x="672" 
d="M642 700v-89h-128v-2c25 -26 41 -56 49 -91h79v-86h-79c-15 -89 -78 -151 -173 -171v-2l172 -259h-174l-162 253h-177v129h253c54 0 90 17 107 50h-360v86h364c-13 37 -49 53 -112 53h-252v129h593z" />
    <glyph glyph-name="sterling" unicode="&#xa3;" horiz-adv-x="691" 
d="M323 135v-2h327v-133h-591v133h51c75 0 117 34 117 90c0 16 -2 32 -10 49h-158v118h59c-27 32 -46 64 -46 109c0 130 116 216 283 216c161 0 292 -84 312 -213l-148 -30c-19 77 -80 109 -164 109c-81 0 -124 -38 -124 -94c0 -31 23 -60 53 -97h248v-118h-176
c5 -16 7 -28 7 -42c0 -40 -15 -73 -40 -95z" />
    <glyph glyph-name="uni20B8" unicode="&#x20b8;" horiz-adv-x="740" 
d="M695 575h-651v125h651v-125zM446 0h-153v393h-249v125h651v-125h-249v-393z" />
    <glyph glyph-name="uni20AE" unicode="&#x20ae;" horiz-adv-x="740" 
d="M695 700v-135h-249v-114l119 43l37 -100l-156 -57v-58l119 43l37 -100l-156 -57v-165h-153v109l-118 -43l-37 101l155 56v59l-118 -43l-37 101l155 56v169h-249v135h651z" />
    <glyph glyph-name="uni20A9" unicode="&#x20a9;" horiz-adv-x="1114" 
d="M1104 533v-89h-99l-15 -60h114v-88h-135l-74 -296h-151l-111 296h-152l-111 -296h-151l-73 296h-136v88h114l-15 60h-99v89h77l-41 167h146l40 -167h201l60 167h128l60 -167h201l40 167h147l-42 -167h77zM402 444h-148l15 -60h111zM537 444l-23 -60h86l-22 60h-41z
M734 384h112l14 60h-147zM313 201h2l34 95h-59zM800 201h2l23 95h-59z" />
    <glyph glyph-name="yen" unicode="&#xa5;" horiz-adv-x="736" 
d="M561 700h175l-223 -323h154v-107h-223v-48h223v-107h-223v-115h-153v115h-222v107h222v48h-222v107h153l-222 323h175l192 -296h2z" />
    <glyph glyph-name="uni0E3F.tf" 
d="M573 381v-2c61 -28 98 -87 98 -161c0 -146 -88 -218 -266 -218h-10v-111h-71v111h-245v700h245v101h71v-101h41c122 0 209 -79 209 -188c0 -58 -27 -105 -72 -131zM324 566h-93v-146h93v146zM411 566h-16v-146h16c53 0 82 26 82 74c0 46 -29 72 -82 72zM231 301v-167h93
v167h-93zM395 134h32c63 0 92 28 92 84c0 53 -32 83 -91 83h-33v-167z" />
    </font>
</defs>
</svg>
