<?xml version="1.0" standalone="no"?>
<!DOCTYPE svg PUBLIC "-//W3C//DTD SVG 1.1//EN" "http://www.w3.org/Graphics/SVG/1.1/DTD/svg11.dtd" >
<svg xmlns="http://www.w3.org/2000/svg" xmlns:xlink="http://www.w3.org/1999/xlink" version="1.1">
<metadata>
Created by FontForge 20190801 at Mon Apr 17 14:28:47 2023
 By root
Copyright (C) 2020-2023 Monotype Imaging Inc. All rights reserved.
</metadata>
<defs>
<font id="MaisonNeue-Book" horiz-adv-x="650" >
  <font-face 
    font-family="Maison Neue"
    font-weight="400"
    font-stretch="normal"
    units-per-em="1000"
    panose-1="2 11 5 4 4 0 0 0 0 0"
    ascent="755"
    descent="-245"
    x-height="530"
    cap-height="700"
    bbox="-642 -300 2106 1014"
    underline-thickness="70"
    underline-position="-120"
    stemh="73"
    stemv="78"
    unicode-range="U+000D-FEFF"
  />
<missing-glyph horiz-adv-x="616" 
d="M80 0v700h456v-700h-456zM148 64h319v572h-319v-572z" />
    <glyph glyph-name="W_W_W" unicode="WWW" horiz-adv-x="2126" 
d="M250 0h-101l-129 700h85l103 -569h2l173 569h78l174 -569h2l174 569h78l173 -569h2l174 569h78l173 -569h2l174 569h78l173 -569h2l103 569h85l-129 -700h-100l-172 562h-2l-172 -562h-82l-171 562h-2l-172 -562h-82l-171 562h-2l-172 -562h-82l-172 562h-2z" />
    <glyph glyph-name="fi" unicode="fi" horiz-adv-x="535" 
d="M385 623v87h90v-87h-90zM189 577v-47h283v-530h-78v460h-205v-460h-78v460h-91v70h91v58c0 68 44 112 119 112h78v-73h-69c-34 0 -50 -16 -50 -50z" />
    <glyph glyph-name="fl" unicode="fl" horiz-adv-x="537" 
d="M394 530v200h78v-730h-78v460h-205v-460h-78v460h-91v70h91v58c0 68 44 112 119 112h78v-73h-69c-34 0 -50 -16 -50 -50v-47h205z" />
    <glyph glyph-name="w_w_w" unicode="www" horiz-adv-x="1828" 
d="M226 0h-74l-127 530h77l96 -412h2l142 412h71l142 -412h2l143 412h70l143 -412h2l143 412h70l143 -412h2l142 412h70l143 -412h2l96 412h77l-127 -530h-74l-151 433h-2l-150 -433h-55l-150 433h-2l-151 -433h-54l-151 433h-2l-150 -433h-55l-150 433h-2z" />
    <glyph glyph-name=".notdef" horiz-adv-x="616" 
d="M80 0v700h456v-700h-456zM148 64h319v572h-319v-572z" />
    <glyph glyph-name=".null" horiz-adv-x="0" 
 />
    <glyph glyph-name="CR" unicode="&#xd;" horiz-adv-x="0" 
 />
    <glyph glyph-name="space" unicode=" " horiz-adv-x="270" 
 />
    <glyph glyph-name="A" unicode="A" horiz-adv-x="593" 
d="M588 0h-85l-49 141h-315l-49 -141h-85l251 700h81zM296 587l-131 -374h264l-131 374h-2z" />
    <glyph glyph-name="Aacute" unicode="&#xc1;" horiz-adv-x="593" 
d="M324 876h98l-102 -116h-70zM588 0h-85l-49 141h-315l-49 -141h-85l251 700h81zM296 587l-131 -374h264l-131 374h-2z" />
    <glyph glyph-name="Abreve" unicode="&#x102;" horiz-adv-x="593" 
d="M299 750c-76 0 -124 46 -128 121h49c6 -36 35 -56 79 -56c43 0 72 20 78 56h49c-4 -75 -52 -121 -127 -121zM588 0h-85l-49 141h-315l-49 -141h-85l251 700h81zM296 587l-131 -374h264l-131 374h-2z" />
    <glyph glyph-name="uni1EAE" unicode="&#x1eae;" horiz-adv-x="593" 
d="M323 1007h99l-103 -116h-69zM298 750c-76 0 -124 46 -128 121h49c6 -36 35 -56 79 -56c43 0 72 20 78 56h49c-4 -75 -52 -121 -127 -121zM588 0h-85l-49 141h-315l-49 -141h-85l251 700h81zM296 587l-131 -374h264l-131 374h-2z" />
    <glyph glyph-name="uni1EB6" unicode="&#x1eb6;" horiz-adv-x="593" 
d="M299 750c-76 0 -124 46 -128 121h49c6 -36 35 -56 79 -56c43 0 72 20 78 56h49c-4 -75 -52 -121 -127 -121zM337 700l251 -700h-85l-49 141h-315l-49 -141h-85l251 700h81zM296 587l-131 -374h264l-131 374h-2zM345 -144h-96v94h96v-94z" />
    <glyph glyph-name="uni1EB0" unicode="&#x1eb0;" horiz-adv-x="593" 
d="M273 1007l73 -116h-69l-103 116h99zM298 750c-76 0 -124 46 -128 121h49c6 -36 35 -56 79 -56c43 0 72 20 78 56h49c-4 -75 -52 -121 -127 -121zM588 0h-85l-49 141h-315l-49 -141h-85l251 700h81zM296 587l-131 -374h264l-131 374h-2z" />
    <glyph glyph-name="uni1EB2" unicode="&#x1eb2;" horiz-adv-x="593" 
d="M296 964c-17 0 -34 -7 -60 -25l-23 40c32 20 61 30 87 30c48 0 80 -26 80 -61c0 -27 -24 -49 -60 -61v-19h-51v45c39 5 58 14 58 30c0 12 -12 21 -31 21zM298 750c-76 0 -124 46 -128 121h49c6 -36 35 -56 79 -56c43 0 72 20 78 56h49c-4 -75 -52 -121 -127 -121zM588 0
h-85l-49 141h-315l-49 -141h-85l251 700h81zM296 587l-131 -374h264l-131 374h-2z" />
    <glyph glyph-name="uni1EB4" unicode="&#x1eb4;" horiz-adv-x="593" 
d="M245 932c-18 0 -28 -11 -32 -32h-42c3 55 33 88 77 88c46 0 70 -36 102 -36c18 0 28 11 32 32h42c-4 -55 -33 -89 -77 -89c-46 0 -70 37 -102 37zM298 750c-76 0 -124 46 -128 121h49c6 -36 35 -56 79 -56c43 0 72 20 78 56h49c-4 -75 -52 -121 -127 -121zM588 0h-85
l-49 141h-315l-49 -141h-85l251 700h81zM296 587l-131 -374h264l-131 374h-2z" />
    <glyph glyph-name="uni01CD" unicode="&#x1cd;" horiz-adv-x="593" 
d="M418 835l-66 -85h-108l-66 85l47 37l73 -92l73 92zM588 0h-85l-49 141h-315l-49 -141h-85l251 700h81zM296 587l-131 -374h264l-131 374h-2z" />
    <glyph glyph-name="Acircumflex" unicode="&#xc2;" horiz-adv-x="593" 
d="M371 740l-73 92l-73 -92l-47 37l66 85h107l67 -85zM588 0h-85l-49 141h-315l-49 -141h-85l251 700h81zM296 587l-131 -374h264l-131 374h-2z" />
    <glyph glyph-name="uni1EA4" unicode="&#x1ea4;" horiz-adv-x="593" 
d="M467 931h89l-93 -104h-62zM371 740l-73 92l-73 -92l-47 37l66 85h107l67 -85zM588 0h-85l-49 141h-315l-49 -141h-85l251 700h81zM296 587l-131 -374h264l-131 374h-2z" />
    <glyph glyph-name="uni1EAC" unicode="&#x1eac;" horiz-adv-x="593" 
d="M371 740l-73 92l-73 -92l-47 37l66 85h107l67 -85zM337 700l251 -700h-85l-49 141h-315l-49 -141h-85l251 700h81zM296 587l-131 -374h264l-131 374h-2zM345 -144h-96v94h96v-94z" />
    <glyph glyph-name="uni1EA6" unicode="&#x1ea6;" horiz-adv-x="593" 
d="M421 931l66 -104h-62l-93 104h89zM371 740l-73 92l-73 -92l-47 37l66 85h107l67 -85zM588 0h-85l-49 141h-315l-49 -141h-85l251 700h81zM296 587l-131 -374h264l-131 374h-2z" />
    <glyph glyph-name="uni1EA8" unicode="&#x1ea8;" horiz-adv-x="593" 
d="M431 917c-16 0 -32 -7 -56 -23l-22 37c30 19 58 28 83 28c45 0 76 -24 76 -57c0 -25 -24 -47 -58 -58v-18h-49v43h1c37 4 55 13 55 28c0 12 -12 20 -30 20zM371 740l-73 92l-73 -92l-47 37l66 85h107l67 -85zM588 0h-85l-49 141h-315l-49 -141h-85l251 700h81zM296 587
l-131 -374h264l-131 374h-2z" />
    <glyph glyph-name="uni1EAA" unicode="&#x1eaa;" horiz-adv-x="593" 
d="M247 920c-16 0 -26 -10 -30 -31h-39c3 54 31 88 73 88c43 0 66 -37 96 -37c17 0 26 11 30 32h40c-4 -54 -32 -88 -73 -88c-44 0 -66 36 -97 36zM371 740l-73 92l-73 -92l-47 37l66 85h107l67 -85zM588 0h-85l-49 141h-315l-49 -141h-85l251 700h81zM296 587l-131 -374
h264l-131 374h-2z" />
    <glyph glyph-name="Adieresis" unicode="&#xc4;" horiz-adv-x="593" 
d="M159 844h96v-94h-96v94zM339 844h96v-94h-96v94zM588 0h-85l-49 141h-315l-49 -141h-85l251 700h81zM296 587l-131 -374h264l-131 374h-2z" />
    <glyph glyph-name="uni01DE" unicode="&#x1de;" horiz-adv-x="593" 
d="M164 947h267v-63h-267v63zM159 844h96v-94h-96v94zM435 750h-96v94h96v-94zM588 0h-85l-49 141h-315l-49 -141h-85l251 700h81zM296 587l-131 -374h264l-131 374h-2z" />
    <glyph glyph-name="uni1EA0" unicode="&#x1ea0;" horiz-adv-x="593" 
d="M337 700l251 -700h-85l-49 141h-315l-49 -141h-85l251 700h81zM296 587l-131 -374h264l-131 374h-2zM345 -144h-96v94h96v-94z" />
    <glyph glyph-name="Agrave" unicode="&#xc0;" horiz-adv-x="593" 
d="M273 876l74 -116h-70l-102 116h98zM588 0h-85l-49 141h-315l-49 -141h-85l251 700h81zM296 587l-131 -374h264l-131 374h-2z" />
    <glyph glyph-name="uni1EA2" unicode="&#x1ea2;" horiz-adv-x="593" 
d="M299 851c-18 0 -36 -7 -62 -26l-25 41c34 22 64 32 92 32c51 0 84 -27 84 -63c0 -28 -26 -53 -64 -65v-20h-53v48h1c40 5 60 15 60 31c0 13 -13 22 -33 22zM588 0h-85l-49 141h-315l-49 -141h-85l251 700h81zM296 587l-131 -374h264l-131 374h-2z" />
    <glyph glyph-name="Amacron" unicode="&#x100;" horiz-adv-x="593" 
d="M164 823h267v-63h-267v63zM588 0h-85l-49 141h-315l-49 -141h-85l251 700h81zM296 587l-131 -374h264l-131 374h-2z" />
    <glyph glyph-name="Aogonek" unicode="&#x104;" horiz-adv-x="593" 
d="M593 -116l24 -63c-28 -13 -59 -21 -94 -21c-57 0 -91 32 -89 85c2 40 33 82 82 115h-13l-49 141h-315l-49 -141h-85l251 700h81l251 -700h-10c-44 -24 -78 -57 -78 -99c0 -24 12 -35 34 -35c19 0 39 7 59 18zM296 587l-131 -374h264l-131 374h-2z" />
    <glyph glyph-name="Aring" unicode="&#xc5;" horiz-adv-x="593" 
d="M588 0h-85l-49 141h-315l-49 -141h-85l238 663c-41 18 -68 55 -68 102c0 66 52 114 122 114c71 0 122 -48 122 -114c0 -47 -27 -85 -68 -103zM297 831c-38 0 -65 -27 -65 -66c0 -38 27 -65 65 -65s66 27 66 65c0 39 -28 66 -66 66zM296 587l-131 -374h264l-131 374h-2z
" />
    <glyph glyph-name="Aringacute" unicode="&#x1fa;" horiz-adv-x="593" 
d="M588 0h-85l-49 141h-315l-49 -141h-85l238 663c-41 18 -68 55 -68 102c0 55 36 97 87 110l59 93h89l-81 -92c54 -13 90 -55 90 -111c0 -47 -27 -85 -68 -103zM297 831c-38 0 -65 -27 -65 -66c0 -38 27 -65 65 -65s66 27 66 65c0 39 -28 66 -66 66zM296 587l-131 -374h264
l-131 374h-2z" />
    <glyph glyph-name="Atilde" unicode="&#xc3;" horiz-adv-x="593" 
d="M238 793c-20 0 -31 -11 -36 -33h-47c4 57 37 93 87 93c52 0 79 -38 115 -38c20 0 31 11 36 33h47c-4 -57 -37 -93 -87 -93c-52 0 -79 38 -115 38zM588 0h-85l-49 141h-315l-49 -141h-85l251 700h81zM296 587l-131 -374h264l-131 374h-2z" />
    <glyph glyph-name="AE" unicode="&#xc6;" horiz-adv-x="858" 
d="M803 700v-78h-277v-224h249v-75h-249v-245h277v-78h-360v149h-280l-66 -149h-92l316 700h482zM373 622l-176 -397h246v397h-70z" />
    <glyph glyph-name="AEacute" unicode="&#x1fc;" horiz-adv-x="858" 
d="M462 876h98l-102 -116h-70zM803 700v-78h-277v-224h249v-75h-249v-245h277v-78h-360v149h-280l-66 -149h-92l316 700h482zM373 622l-176 -397h246v397h-70z" />
    <glyph glyph-name="B" unicode="B" horiz-adv-x="631" 
d="M339 0h-253v700h269c123 0 204 -72 204 -181c0 -63 -30 -115 -85 -144v-2c70 -28 111 -89 111 -166c0 -135 -85 -207 -246 -207zM168 622v-219h172c91 0 136 37 136 112c0 70 -46 107 -136 107h-172zM168 330v-252h160c122 0 174 39 174 129c0 87 -49 123 -172 123h-162z
" />
    <glyph glyph-name="uni1E04" unicode="&#x1e04;" horiz-adv-x="631" 
d="M339 0h-253v700h269c123 0 204 -72 204 -181c0 -63 -30 -115 -85 -144v-2c70 -28 111 -89 111 -166c0 -135 -85 -207 -246 -207zM168 622v-219h172c91 0 136 37 136 112c0 70 -46 107 -136 107h-172zM168 330v-252h160c122 0 174 39 174 129c0 87 -49 123 -172 123h-162z
M363 -144h-96v94h96v-94z" />
    <glyph glyph-name="C" unicode="C" 
d="M340 -15c-179 0 -295 143 -295 365c0 219 118 365 295 365c144 0 248 -95 268 -244l-82 -14c-20 117 -84 180 -186 180c-131 0 -212 -110 -212 -287c0 -179 80 -287 212 -287c108 0 172 68 185 196l85 -11c-13 -163 -115 -263 -270 -263z" />
    <glyph glyph-name="Cacute" unicode="&#x106;" 
d="M363 775h-70l74 116h98zM340 -15c-179 0 -295 143 -295 365c0 219 118 365 295 365c144 0 248 -95 268 -244l-82 -14c-20 117 -84 180 -186 180c-131 0 -212 -110 -212 -287c0 -179 80 -287 212 -287c108 0 172 68 185 196l85 -11c-13 -163 -115 -263 -270 -263z" />
    <glyph glyph-name="Ccaron" unicode="&#x10c;" 
d="M460 850l-66 -85h-108l-66 85l47 37l73 -92l73 92zM525 259l85 -11c-13 -163 -115 -263 -270 -263c-179 0 -295 143 -295 365c0 219 118 365 295 365c144 0 248 -95 268 -244l-82 -14c-20 117 -84 180 -186 180c-131 0 -212 -110 -212 -287c0 -179 80 -287 212 -287
c108 0 172 68 185 196z" />
    <glyph glyph-name="Ccedilla" unicode="&#xc7;" 
d="M525 259l85 -11c-12 -154 -104 -252 -245 -262l-28 -49c10 4 21 6 34 6c49 0 92 -33 92 -83c0 -55 -45 -91 -103 -91c-37 0 -72 13 -102 40l34 41c21 -20 43 -30 68 -30c29 0 48 17 48 41c0 25 -21 40 -47 40c-22 0 -39 -7 -55 -26l-43 19l50 92
c-164 14 -268 154 -268 364c0 219 118 365 295 365c144 0 248 -95 268 -244l-82 -14c-20 117 -84 180 -186 180c-131 0 -212 -110 -212 -287c0 -179 80 -287 212 -287c108 0 172 68 185 196z" />
    <glyph glyph-name="Ccircumflex" unicode="&#x108;" 
d="M413 755l-73 92l-73 -92l-47 37l66 85h107l67 -85zM525 259l85 -11c-13 -163 -115 -263 -270 -263c-179 0 -295 143 -295 365c0 219 118 365 295 365c144 0 248 -95 268 -244l-82 -14c-20 117 -84 180 -186 180c-131 0 -212 -110 -212 -287c0 -179 80 -287 212 -287
c108 0 172 68 185 196z" />
    <glyph glyph-name="Cdotaccent" unicode="&#x10a;" 
d="M388 775h-96v94h96v-94zM340 -15c-179 0 -295 143 -295 365c0 219 118 365 295 365c144 0 248 -95 268 -244l-82 -14c-20 117 -84 180 -186 180c-131 0 -212 -110 -212 -287c0 -179 80 -287 212 -287c108 0 172 68 185 196l85 -11c-13 -163 -115 -263 -270 -263z" />
    <glyph glyph-name="D" unicode="D" horiz-adv-x="651" 
d="M298 0h-212v700h218c177 0 302 -128 302 -349c0 -247 -125 -351 -308 -351zM168 622v-544h125c142 0 230 75 230 273c0 179 -88 271 -224 271h-131z" />
    <glyph glyph-name="Eth" unicode="&#xd0;" horiz-adv-x="651" 
d="M86 700h218c177 0 302 -128 302 -349c0 -247 -125 -351 -308 -351h-212v317h-90v69h90v314zM168 78h125c142 0 230 75 230 273c0 179 -88 271 -224 271h-131v-236h180v-69h-180v-239z" />
    <glyph glyph-name="Dcaron" unicode="&#x10e;" horiz-adv-x="651" 
d="M416 835l-66 -85h-108l-66 85l47 37l73 -92l73 92zM86 700h218c177 0 302 -128 302 -349c0 -247 -125 -351 -308 -351h-212v700zM168 78h125c142 0 230 75 230 273c0 179 -88 271 -224 271h-131v-544z" />
    <glyph glyph-name="Dcroat" unicode="&#x110;" horiz-adv-x="651" 
d="M86 700h218c177 0 302 -128 302 -349c0 -247 -125 -351 -308 -351h-212v317h-90v69h90v314zM168 78h125c142 0 230 75 230 273c0 179 -88 271 -224 271h-131v-236h180v-69h-180v-239z" />
    <glyph glyph-name="uni1E0C" unicode="&#x1e0c;" horiz-adv-x="651" 
d="M298 0h-212v700h218c177 0 302 -128 302 -349c0 -247 -125 -351 -308 -351zM168 622v-544h125c142 0 230 75 230 273c0 179 -88 271 -224 271h-131zM371 -144h-96v94h96v-94z" />
    <glyph glyph-name="E" unicode="E" horiz-adv-x="561" 
d="M506 0h-420v700h420v-78h-338v-224h310v-74h-310v-246h338v-78z" />
    <glyph glyph-name="Eacute" unicode="&#xc9;" horiz-adv-x="561" 
d="M330 760h-70l74 116h98zM506 0h-420v700h420v-78h-338v-224h310v-74h-310v-246h338v-78z" />
    <glyph glyph-name="Ebreve" unicode="&#x114;" horiz-adv-x="561" 
d="M308 750c-76 0 -124 46 -128 121h49c6 -36 35 -56 79 -56c43 0 72 20 78 56h49c-4 -75 -52 -121 -127 -121zM506 0h-420v700h420v-78h-338v-224h310v-74h-310v-246h338v-78z" />
    <glyph glyph-name="Ecaron" unicode="&#x11a;" horiz-adv-x="561" 
d="M427 835l-66 -85h-108l-66 85l47 37l73 -92l73 92zM506 700v-78h-338v-224h310v-74h-310v-246h338v-78h-420v700h420z" />
    <glyph glyph-name="uni0228" unicode="&#x228;" horiz-adv-x="561" 
d="M506 700v-78h-338v-224h310v-74h-310v-246h338v-78h-185l-28 -48c10 4 21 6 34 6c49 0 92 -33 92 -83c0 -55 -45 -91 -103 -91c-37 0 -72 13 -102 40l34 41c21 -20 43 -30 68 -30c29 0 48 17 48 41c0 25 -21 40 -47 40c-22 0 -39 -7 -55 -26l-43 19l49 91h-182v700h420z
" />
    <glyph glyph-name="Ecircumflex" unicode="&#xca;" horiz-adv-x="561" 
d="M380 740l-73 92l-73 -92l-47 37l66 85h107l67 -85zM506 700v-78h-338v-224h310v-74h-310v-246h338v-78h-420v700h420z" />
    <glyph glyph-name="uni1EBE" unicode="&#x1ebe;" horiz-adv-x="561" 
d="M476 931h89l-93 -104h-62zM380 740l-73 92l-73 -92l-47 37l66 85h107l67 -85zM506 0h-420v700h420v-78h-338v-224h310v-74h-310v-246h338v-78z" />
    <glyph glyph-name="uni1EC6" unicode="&#x1ec6;" horiz-adv-x="561" 
d="M380 740l-73 92l-73 -92l-47 37l66 85h107l67 -85zM506 700v-78h-338v-224h310v-74h-310v-246h338v-78h-420v700h420zM344 -144h-96v94h96v-94z" />
    <glyph glyph-name="uni1EC0" unicode="&#x1ec0;" horiz-adv-x="561" 
d="M430 931l66 -104h-62l-93 104h89zM380 740l-73 92l-73 -92l-47 37l66 85h107l67 -85zM506 700v-78h-338v-224h310v-74h-310v-246h338v-78h-420v700h420z" />
    <glyph glyph-name="uni1EC2" unicode="&#x1ec2;" horiz-adv-x="561" 
d="M440 917c-16 0 -32 -7 -56 -23l-22 37c30 19 58 28 83 28c45 0 76 -24 76 -57c0 -25 -24 -47 -58 -58v-18h-49v43h1c37 4 55 13 55 28c0 12 -12 20 -30 20zM380 740l-73 92l-73 -92l-47 37l66 85h107l67 -85zM506 0h-420v700h420v-78h-338v-224h310v-74h-310v-246h338
v-78z" />
    <glyph glyph-name="uni1EC4" unicode="&#x1ec4;" horiz-adv-x="561" 
d="M256 920c-16 0 -26 -10 -30 -31h-39c3 54 31 88 73 88c43 0 66 -37 96 -37c17 0 26 11 30 32h40c-4 -54 -32 -88 -73 -88c-44 0 -66 36 -97 36zM380 740l-73 92l-73 -92l-47 37l66 85h107l67 -85zM506 700v-78h-338v-224h310v-74h-310v-246h338v-78h-420v700h420z" />
    <glyph glyph-name="Edieresis" unicode="&#xcb;" horiz-adv-x="561" 
d="M265 750h-96v94h96v-94zM445 750h-96v94h96v-94zM506 0h-420v700h420v-78h-338v-224h310v-74h-310v-246h338v-78z" />
    <glyph glyph-name="Edotaccent" unicode="&#x116;" horiz-adv-x="561" 
d="M355 760h-96v94h96v-94zM506 0h-420v700h420v-78h-338v-224h310v-74h-310v-246h338v-78z" />
    <glyph glyph-name="uni1EB8" unicode="&#x1eb8;" horiz-adv-x="561" 
d="M506 0h-420v700h420v-78h-338v-224h310v-74h-310v-246h338v-78zM344 -144h-96v94h96v-94z" />
    <glyph glyph-name="Egrave" unicode="&#xc8;" horiz-adv-x="561" 
d="M357 760h-70l-102 116h98zM506 0h-420v700h420v-78h-338v-224h310v-74h-310v-246h338v-78z" />
    <glyph glyph-name="uni1EBA" unicode="&#x1eba;" horiz-adv-x="561" 
d="M308 851c-18 0 -36 -7 -62 -26l-25 41c34 22 64 32 92 32c51 0 84 -27 84 -63c0 -28 -26 -53 -64 -65v-20h-53v48h1c40 5 60 15 60 31c0 13 -13 22 -33 22zM506 700v-78h-338v-224h310v-74h-310v-246h338v-78h-420v700h420z" />
    <glyph glyph-name="Emacron" unicode="&#x112;" horiz-adv-x="561" 
d="M441 760h-267v63h267v-63zM506 0h-420v700h420v-78h-338v-224h310v-74h-310v-246h338v-78z" />
    <glyph glyph-name="Eogonek" unicode="&#x118;" horiz-adv-x="561" 
d="M506 700v-78h-338v-224h310v-74h-310v-246h338v-78h-52c-44 -24 -78 -57 -78 -99c0 -24 12 -35 34 -35c19 0 39 7 59 18l24 -63c-28 -13 -59 -21 -94 -21c-57 0 -91 32 -89 85c2 40 33 82 82 115h-306v700h420z" />
    <glyph glyph-name="uni018E" unicode="&#x18e;" horiz-adv-x="561" 
d="M476 700v-700h-421v78h338v246h-310v74h310v224h-338v78h421z" />
    <glyph glyph-name="uni1EBC" unicode="&#x1ebc;" horiz-adv-x="561" 
d="M362 755c-52 0 -79 38 -115 38c-20 0 -31 -11 -36 -33h-47c4 57 37 93 87 93c52 0 79 -38 115 -38c20 0 31 11 36 33h47c-4 -57 -37 -93 -87 -93zM506 0h-420v700h420v-78h-338v-224h310v-74h-310v-246h338v-78z" />
    <glyph glyph-name="F" unicode="F" horiz-adv-x="552" 
d="M168 0h-82v700h421v-78h-339v-250h311v-74h-311v-298z" />
    <glyph glyph-name="G" unicode="G" horiz-adv-x="653" 
d="M340 -15c-179 0 -295 143 -295 365s116 365 295 365c140 0 245 -91 266 -231l-82 -15c-20 110 -85 168 -184 168c-131 0 -212 -110 -212 -287s81 -287 212 -287c120 0 190 78 187 205h-178v78h259v-71c0 -177 -104 -290 -268 -290z" />
    <glyph glyph-name="Gbreve" unicode="&#x11e;" horiz-adv-x="653" 
d="M341 765c-76 0 -124 46 -128 121h49c6 -36 35 -56 79 -56c43 0 72 20 78 56h49c-4 -75 -52 -121 -127 -121zM340 -15c-179 0 -295 143 -295 365s116 365 295 365c140 0 245 -91 266 -231l-82 -15c-20 110 -85 168 -184 168c-131 0 -212 -110 -212 -287s81 -287 212 -287
c120 0 190 78 187 205h-178v78h259v-71c0 -177 -104 -290 -268 -290z" />
    <glyph glyph-name="Gcircumflex" unicode="&#x11c;" horiz-adv-x="653" 
d="M413 755l-73 92l-73 -92l-47 37l66 85h107l67 -85zM349 268v78h259v-71c0 -177 -104 -290 -268 -290c-179 0 -295 143 -295 365s116 365 295 365c140 0 245 -91 266 -231l-82 -15c-20 110 -85 168 -184 168c-131 0 -212 -110 -212 -287s81 -287 212 -287
c120 0 190 78 187 205h-178z" />
    <glyph glyph-name="uni0122" unicode="&#x122;" horiz-adv-x="653" 
d="M340 -15c-179 0 -295 143 -295 365s116 365 295 365c140 0 245 -91 266 -231l-82 -15c-20 110 -85 168 -184 168c-131 0 -212 -110 -212 -287s81 -287 212 -287c120 0 190 78 187 205h-178v78h259v-71c0 -177 -104 -290 -268 -290zM293 -250v37c28 5 40 21 40 52h-45v96
h104v-84c0 -62 -34 -97 -99 -101z" />
    <glyph glyph-name="Gdotaccent" unicode="&#x120;" horiz-adv-x="653" 
d="M388 775h-96v94h96v-94zM340 -15c-179 0 -295 143 -295 365s116 365 295 365c140 0 245 -91 266 -231l-82 -15c-20 110 -85 168 -184 168c-131 0 -212 -110 -212 -287s81 -287 212 -287c120 0 190 78 187 205h-178v78h259v-71c0 -177 -104 -290 -268 -290z" />
    <glyph glyph-name="H" unicode="H" horiz-adv-x="652" 
d="M168 0h-82v700h82v-304h316v304h82v-700h-82v324h-316v-324z" />
    <glyph glyph-name="Hbar" unicode="&#x126;" horiz-adv-x="642" 
d="M562 584h80v-69h-80v-515h-83v323h-315v-323h-83v515h-81v69h81v116h83v-116h315v116h83v-116zM164 396h315v119h-315v-119z" />
    <glyph glyph-name="Hcircumflex" unicode="&#x124;" horiz-adv-x="652" 
d="M399 740l-73 92l-73 -92l-47 37l66 85h107l67 -85zM484 396v304h82v-700h-82v324h-316v-324h-82v700h82v-304h316z" />
    <glyph glyph-name="uni1E24" unicode="&#x1e24;" horiz-adv-x="652" 
d="M168 0h-82v700h82v-304h316v304h82v-700h-82v324h-316v-324zM374 -144h-96v94h96v-94z" />
    <glyph glyph-name="I" unicode="I" horiz-adv-x="254" 
d="M168 0h-82v700h82v-700z" />
    <glyph glyph-name="Iacute" unicode="&#xcd;" horiz-adv-x="254" 
d="M150 760h-70l74 116h98zM168 0h-82v700h82v-700z" />
    <glyph glyph-name="Ibreve" unicode="&#x12c;" horiz-adv-x="254" 
d="M129 750c-76 0 -124 46 -128 121h49c6 -36 35 -56 79 -56c43 0 72 20 78 56h49c-4 -75 -52 -121 -127 -121zM168 0h-82v700h82v-700z" />
    <glyph glyph-name="uni01CF" unicode="&#x1cf;" horiz-adv-x="254" 
d="M128 780l73 92l47 -37l-66 -85h-108l-66 85l47 37zM168 0h-82v700h82v-700z" />
    <glyph glyph-name="Icircumflex" unicode="&#xce;" horiz-adv-x="254" 
d="M74 862h107l67 -85l-47 -37l-73 92l-73 -92l-47 37zM168 0h-82v700h82v-700z" />
    <glyph glyph-name="Idieresis" unicode="&#xcf;" horiz-adv-x="254" 
d="M85 750h-96v94h96v-94zM265 750h-96v94h96v-94zM168 0h-82v700h82v-700z" />
    <glyph glyph-name="Idotaccent" unicode="&#x130;" horiz-adv-x="254" 
d="M175 760h-96v94h96v-94zM168 0h-82v700h82v-700z" />
    <glyph glyph-name="uni1ECA" unicode="&#x1eca;" horiz-adv-x="254" 
d="M168 0h-82v700h82v-700zM175 -144h-96v94h96v-94z" />
    <glyph glyph-name="Igrave" unicode="&#xcc;" horiz-adv-x="254" 
d="M177 760h-70l-102 116h98zM168 0h-82v700h82v-700z" />
    <glyph glyph-name="uni1EC8" unicode="&#x1ec8;" horiz-adv-x="254" 
d="M134 898c51 0 84 -27 84 -63c0 -28 -26 -53 -64 -65v-20h-53v48h1c40 5 60 15 60 31c0 13 -13 22 -33 22c-18 0 -36 -7 -62 -26l-25 41c34 22 64 32 92 32zM168 0h-82v700h82v-700z" />
    <glyph glyph-name="Imacron" unicode="&#x12a;" horiz-adv-x="254" 
d="M261 760h-267v63h267v-63zM168 0h-82v700h82v-700z" />
    <glyph glyph-name="Iogonek" unicode="&#x12e;" horiz-adv-x="254" 
d="M176 -116l24 -63c-28 -13 -59 -21 -94 -21c-57 0 -91 32 -89 85c2 40 33 82 82 115h-13v700h82v-700h-7c-44 -24 -78 -57 -78 -99c0 -24 12 -35 34 -35c19 0 39 7 59 18z" />
    <glyph glyph-name="Itilde" unicode="&#x128;" horiz-adv-x="254" 
d="M182 755c-52 0 -79 38 -115 38c-20 0 -31 -11 -36 -33h-47c4 57 37 93 87 93c52 0 79 -38 115 -38c20 0 31 11 36 33h47c-4 -57 -37 -93 -87 -93zM168 0h-82v700h82v-700z" />
    <glyph glyph-name="J" unicode="J" horiz-adv-x="522" 
d="M235 -15c-123 0 -195 69 -205 208l80 9c8 -96 45 -139 125 -139s123 56 123 159v478h83v-482c0 -149 -85 -233 -206 -233z" />
    <glyph glyph-name="Jcircumflex" unicode="&#x134;" horiz-adv-x="522" 
d="M346 862h107l67 -85l-47 -37l-73 92l-73 -92l-47 37zM358 222v478h83v-482c0 -149 -85 -233 -206 -233c-123 0 -195 69 -205 208l80 9c8 -96 45 -139 125 -139s123 56 123 159z" />
    <glyph glyph-name="K" unicode="K" horiz-adv-x="601" 
d="M168 0h-82v700h82v-363h2l299 363h100l-256 -308l283 -392h-103l-233 329h-2l-90 -109v-220z" />
    <glyph glyph-name="uni0136" unicode="&#x136;" horiz-adv-x="601" 
d="M168 0h-82v700h82v-363h2l299 363h100l-256 -308l283 -392h-103l-233 329h-2l-90 -109v-220zM284 -235v37c28 5 40 21 40 52h-45v96h104v-84c0 -62 -34 -97 -99 -101z" />
    <glyph glyph-name="L" unicode="L" horiz-adv-x="519" 
d="M484 0h-398v700h82v-622h316v-78z" />
    <glyph glyph-name="Lacute" unicode="&#x139;" horiz-adv-x="519" 
d="M150 760h-70l74 116h98zM484 0h-398v700h82v-622h316v-78z" />
    <glyph glyph-name="Lcaron" unicode="&#x13d;" horiz-adv-x="493" 
d="M484 0h-398v700h82v-622h316v-78zM384 515v37c28 5 40 21 40 52h-44v96h103v-84c0 -62 -34 -97 -99 -101z" />
    <glyph glyph-name="uni013B" unicode="&#x13b;" horiz-adv-x="519" 
d="M484 0h-398v700h82v-622h316v-78zM238 -235v37c28 5 40 21 40 52h-45v96h104v-84c0 -62 -34 -97 -99 -101z" />
    <glyph glyph-name="Ldot" unicode="&#x13f;" horiz-adv-x="519" 
d="M484 0h-398v700h82v-622h316v-78zM434 331h-119v116h119v-116z" />
    <glyph glyph-name="uni1E36" unicode="&#x1e36;" horiz-adv-x="519" 
d="M484 0h-398v700h82v-622h316v-78zM333 -144h-96v94h96v-94z" />
    <glyph glyph-name="Lslash" unicode="&#x141;" horiz-adv-x="568" 
d="M238 316v-238h315v-78h-398v245l-117 -109l-33 35l150 139v390h83v-314l157 141l35 -39z" />
    <glyph glyph-name="M" unicode="M" horiz-adv-x="847" 
d="M168 0h-82v700h110l227 -556h2l227 556h110v-700h-83v568h-2l-236 -568h-35l-236 568h-2v-568z" />
    <glyph glyph-name="N" unicode="N" horiz-adv-x="672" 
d="M168 0h-82v700h97l318 -571h2v571h83v-700h-98l-318 571h-2v-571z" />
    <glyph glyph-name="Nacute" unicode="&#x143;" horiz-adv-x="672" 
d="M359 760h-70l74 116h98zM168 0h-82v700h97l318 -571h2v571h83v-700h-98l-318 571h-2v-571z" />
    <glyph glyph-name="Ncaron" unicode="&#x147;" horiz-adv-x="672" 
d="M456 835l-66 -85h-108l-66 85l47 37l73 -92l73 92zM503 129v571h83v-700h-98l-318 571h-2v-571h-82v700h97l318 -571h2z" />
    <glyph glyph-name="uni0145" unicode="&#x145;" horiz-adv-x="672" 
d="M168 0h-82v700h97l318 -571h2v571h83v-700h-98l-318 571h-2v-571zM297 -235v37c28 5 40 21 40 52h-45v96h104v-84c0 -62 -34 -97 -99 -101z" />
    <glyph glyph-name="uni1E44" unicode="&#x1e44;" horiz-adv-x="672" 
d="M383 760h-96v94h96v-94zM168 0h-82v700h97l318 -571h2v571h83v-700h-98l-318 571h-2v-571z" />
    <glyph glyph-name="uni1E46" unicode="&#x1e46;" horiz-adv-x="672" 
d="M168 0h-82v700h97l318 -571h2v571h83v-700h-98l-318 571h-2v-571zM391 -144h-96v94h96v-94z" />
    <glyph glyph-name="Eng" unicode="&#x14a;" horiz-adv-x="668" 
d="M499 153v547h83v-768c0 -75 -36 -106 -122 -106h-42v73h42c30 0 44 13 44 39v62l-334 562h-2v-562h-82v700h88l323 -547h2z" />
    <glyph glyph-name="Ntilde" unicode="&#xd1;" horiz-adv-x="672" 
d="M391 755c-52 0 -79 38 -115 38c-20 0 -31 -11 -36 -33h-47c4 57 37 93 87 93c52 0 79 -38 115 -38c20 0 31 11 36 33h47c-4 -57 -37 -93 -87 -93zM168 0h-82v700h97l318 -571h2v571h83v-700h-98l-318 571h-2v-571z" />
    <glyph glyph-name="O" unicode="O" horiz-adv-x="680" 
d="M340 -15c-177 0 -295 146 -295 365s118 365 295 365s295 -146 295 -365s-118 -365 -295 -365zM340 63c131 0 212 110 212 287s-81 287 -212 287s-212 -110 -212 -287s81 -287 212 -287z" />
    <glyph glyph-name="Oacute" unicode="&#xd3;" horiz-adv-x="680" 
d="M363 775h-70l74 116h98zM340 -15c-177 0 -295 146 -295 365s118 365 295 365s295 -146 295 -365s-118 -365 -295 -365zM340 63c131 0 212 110 212 287s-81 287 -212 287s-212 -110 -212 -287s81 -287 212 -287z" />
    <glyph glyph-name="Obreve" unicode="&#x14e;" horiz-adv-x="680" 
d="M341 765c-76 0 -124 46 -128 121h49c6 -36 35 -56 79 -56c43 0 72 20 78 56h49c-4 -75 -52 -121 -127 -121zM340 -15c-177 0 -295 146 -295 365s118 365 295 365s295 -146 295 -365s-118 -365 -295 -365zM340 63c131 0 212 110 212 287s-81 287 -212 287
s-212 -110 -212 -287s81 -287 212 -287z" />
    <glyph glyph-name="uni01D1" unicode="&#x1d1;" horiz-adv-x="680" 
d="M460 850l-66 -85h-108l-66 85l47 37l73 -92l73 92zM340 715c177 0 295 -146 295 -365s-118 -365 -295 -365s-295 146 -295 365s118 365 295 365zM340 63c131 0 212 110 212 287s-81 287 -212 287s-212 -110 -212 -287s81 -287 212 -287z" />
    <glyph glyph-name="Ocircumflex" unicode="&#xd4;" horiz-adv-x="680" 
d="M413 755l-73 92l-73 -92l-47 37l66 85h107l67 -85zM340 715c177 0 295 -146 295 -365s-118 -365 -295 -365s-295 146 -295 365s118 365 295 365zM340 63c131 0 212 110 212 287s-81 287 -212 287s-212 -110 -212 -287s81 -287 212 -287z" />
    <glyph glyph-name="uni1ED0" unicode="&#x1ed0;" horiz-adv-x="680" 
d="M509 946h89l-93 -104h-62zM413 755l-73 92l-73 -92l-47 37l66 85h107l67 -85zM340 715c177 0 295 -146 295 -365s-118 -365 -295 -365s-295 146 -295 365s118 365 295 365zM340 63c131 0 212 110 212 287s-81 287 -212 287s-212 -110 -212 -287s81 -287 212 -287z" />
    <glyph glyph-name="uni1ED8" unicode="&#x1ed8;" horiz-adv-x="680" 
d="M413 755l-73 92l-73 -92l-47 37l66 85h107l67 -85zM340 715c177 0 295 -146 295 -365s-118 -365 -295 -365s-295 146 -295 365s118 365 295 365zM340 63c131 0 212 110 212 287s-81 287 -212 287s-212 -110 -212 -287s81 -287 212 -287zM388 -159h-96v94h96v-94z" />
    <glyph glyph-name="uni1ED2" unicode="&#x1ed2;" horiz-adv-x="680" 
d="M463 946l66 -104h-62l-93 104h89zM413 755l-73 92l-73 -92l-47 37l66 85h107l67 -85zM340 715c177 0 295 -146 295 -365s-118 -365 -295 -365s-295 146 -295 365s118 365 295 365zM340 63c131 0 212 110 212 287s-81 287 -212 287s-212 -110 -212 -287s81 -287 212 -287z
" />
    <glyph glyph-name="uni1ED4" unicode="&#x1ed4;" horiz-adv-x="680" 
d="M473 932c-16 0 -32 -7 -56 -23l-22 37c30 19 58 28 83 28c45 0 76 -24 76 -57c0 -25 -24 -47 -58 -58v-18h-49v43h1c37 4 55 13 55 28c0 12 -12 20 -30 20zM413 755l-73 92l-73 -92l-47 37l66 85h107l67 -85zM340 715c177 0 295 -146 295 -365s-118 -365 -295 -365
s-295 146 -295 365s118 365 295 365zM340 63c131 0 212 110 212 287s-81 287 -212 287s-212 -110 -212 -287s81 -287 212 -287z" />
    <glyph glyph-name="uni1ED6" unicode="&#x1ed6;" horiz-adv-x="680" 
d="M289 935c-16 0 -26 -10 -30 -31h-39c3 54 31 88 73 88c43 0 66 -37 96 -37c17 0 26 11 30 32h40c-4 -54 -32 -88 -73 -88c-44 0 -66 36 -97 36zM413 755l-73 92l-73 -92l-47 37l66 85h107l67 -85zM340 715c177 0 295 -146 295 -365s-118 -365 -295 -365
s-295 146 -295 365s118 365 295 365zM340 63c131 0 212 110 212 287s-81 287 -212 287s-212 -110 -212 -287s81 -287 212 -287z" />
    <glyph glyph-name="Odieresis" unicode="&#xd6;" horiz-adv-x="680" 
d="M298 765h-96v94h96v-94zM478 765h-96v94h96v-94zM340 -15c-177 0 -295 146 -295 365s118 365 295 365s295 -146 295 -365s-118 -365 -295 -365zM340 63c131 0 212 110 212 287s-81 287 -212 287s-212 -110 -212 -287s81 -287 212 -287z" />
    <glyph glyph-name="uni1ECC" unicode="&#x1ecc;" horiz-adv-x="680" 
d="M340 -15c-177 0 -295 146 -295 365s118 365 295 365s295 -146 295 -365s-118 -365 -295 -365zM340 63c131 0 212 110 212 287s-81 287 -212 287s-212 -110 -212 -287s81 -287 212 -287zM388 -159h-96v94h96v-94z" />
    <glyph glyph-name="Ograve" unicode="&#xd2;" horiz-adv-x="680" 
d="M390 775h-70l-102 116h98zM340 -15c-177 0 -295 146 -295 365s118 365 295 365s295 -146 295 -365s-118 -365 -295 -365zM340 63c131 0 212 110 212 287s-81 287 -212 287s-212 -110 -212 -287s81 -287 212 -287z" />
    <glyph glyph-name="uni1ECE" unicode="&#x1ece;" horiz-adv-x="680" 
d="M341 866c-18 0 -36 -7 -62 -26l-25 41c34 22 64 32 92 32c51 0 84 -27 84 -63c0 -28 -26 -53 -64 -65v-20h-53v48h1c40 5 60 15 60 31c0 13 -13 22 -33 22zM340 715c177 0 295 -146 295 -365s-118 -365 -295 -365s-295 146 -295 365s118 365 295 365zM340 63
c131 0 212 110 212 287s-81 287 -212 287s-212 -110 -212 -287s81 -287 212 -287z" />
    <glyph glyph-name="Ohorn" unicode="&#x1a0;" horiz-adv-x="680" 
d="M519 651c73 -63 116 -169 116 -301c0 -219 -118 -365 -295 -365s-295 146 -295 365s118 365 295 365c67 0 97 -18 148 -18c36 0 47 21 47 91h59c0 -89 -21 -129 -75 -137zM340 63c131 0 212 110 212 287s-81 287 -212 287s-212 -110 -212 -287s81 -287 212 -287z" />
    <glyph glyph-name="uni1EDA" unicode="&#x1eda;" horiz-adv-x="680" 
d="M367 891h98l-102 -116h-70zM519 651c73 -63 116 -169 116 -301c0 -219 -118 -365 -295 -365s-295 146 -295 365s118 365 295 365c67 0 97 -18 148 -18c36 0 47 21 47 91h59c0 -89 -21 -129 -75 -137zM340 63c131 0 212 110 212 287s-81 287 -212 287s-212 -110 -212 -287
s81 -287 212 -287z" />
    <glyph glyph-name="uni1EE2" unicode="&#x1ee2;" horiz-adv-x="680" 
d="M519 651c73 -63 116 -169 116 -301c0 -219 -118 -365 -295 -365s-295 146 -295 365s118 365 295 365c67 0 97 -18 148 -18c36 0 47 21 47 91h59c0 -89 -21 -129 -75 -137zM340 63c131 0 212 110 212 287s-81 287 -212 287s-212 -110 -212 -287s81 -287 212 -287z
M388 -159h-96v94h96v-94z" />
    <glyph glyph-name="uni1EDC" unicode="&#x1edc;" horiz-adv-x="680" 
d="M316 891l74 -116h-70l-102 116h98zM519 651c73 -63 116 -169 116 -301c0 -219 -118 -365 -295 -365s-295 146 -295 365s118 365 295 365c67 0 97 -18 148 -18c36 0 47 21 47 91h59c0 -89 -21 -129 -75 -137zM340 63c131 0 212 110 212 287s-81 287 -212 287
s-212 -110 -212 -287s81 -287 212 -287z" />
    <glyph glyph-name="uni1EDE" unicode="&#x1ede;" horiz-adv-x="680" 
d="M341 866c-18 0 -36 -7 -62 -26l-25 41c34 22 64 32 92 32c51 0 84 -27 84 -63c0 -28 -26 -53 -64 -65v-20h-53v48h1c40 5 60 15 60 31c0 13 -13 22 -33 22zM519 651c73 -63 116 -169 116 -301c0 -219 -118 -365 -295 -365s-295 146 -295 365s118 365 295 365
c67 0 97 -18 148 -18c36 0 47 21 47 91h59c0 -89 -21 -129 -75 -137zM340 63c131 0 212 110 212 287s-81 287 -212 287s-212 -110 -212 -287s81 -287 212 -287z" />
    <glyph glyph-name="uni1EE0" unicode="&#x1ee0;" horiz-adv-x="680" 
d="M280 808c-20 0 -31 -11 -36 -33h-47c4 57 37 93 87 93c52 0 79 -38 115 -38c20 0 31 11 36 33h47c-4 -57 -37 -93 -87 -93c-52 0 -79 38 -115 38zM519 651c73 -63 116 -169 116 -301c0 -219 -118 -365 -295 -365s-295 146 -295 365s118 365 295 365c67 0 97 -18 148 -18
c36 0 47 21 47 91h59c0 -89 -21 -129 -75 -137zM340 63c131 0 212 110 212 287s-81 287 -212 287s-212 -110 -212 -287s81 -287 212 -287z" />
    <glyph glyph-name="Ohungarumlaut" unicode="&#x150;" horiz-adv-x="680" 
d="M277 775h-70l74 116h98zM431 775h-70l74 116h98zM340 -15c-177 0 -295 146 -295 365s118 365 295 365s295 -146 295 -365s-118 -365 -295 -365zM340 63c131 0 212 110 212 287s-81 287 -212 287s-212 -110 -212 -287s81 -287 212 -287z" />
    <glyph glyph-name="Omacron" unicode="&#x14c;" horiz-adv-x="680" 
d="M474 775h-267v63h267v-63zM340 -15c-177 0 -295 146 -295 365s118 365 295 365s295 -146 295 -365s-118 -365 -295 -365zM340 63c131 0 212 110 212 287s-81 287 -212 287s-212 -110 -212 -287s81 -287 212 -287z" />
    <glyph glyph-name="Oslash" unicode="&#xd8;" horiz-adv-x="681" 
d="M564 699l-33 -60c66 -63 104 -164 104 -289c0 -219 -118 -365 -295 -365c-55 0 -104 14 -146 40l-29 -53l-49 27l33 61c-66 64 -104 165 -104 290c0 219 118 365 295 365c55 0 105 -14 147 -41l29 53zM128 350c0 -92 22 -167 62 -216l259 471c-31 21 -67 32 -109 32
c-131 0 -212 -110 -212 -287zM340 63c131 0 212 110 212 287c0 92 -22 166 -61 216l-259 -472c31 -20 67 -31 108 -31z" />
    <glyph glyph-name="Oslashacute" unicode="&#x1fe;" horiz-adv-x="681" 
d="M367 891h98l-102 -116h-70zM564 699l-33 -60c66 -63 104 -164 104 -289c0 -219 -118 -365 -295 -365c-55 0 -104 14 -146 40l-29 -53l-49 27l33 61c-66 64 -104 165 -104 290c0 219 118 365 295 365c55 0 105 -14 147 -41l29 53zM128 350c0 -92 22 -167 62 -216l259 471
c-31 21 -67 32 -109 32c-131 0 -212 -110 -212 -287zM340 63c131 0 212 110 212 287c0 92 -22 166 -61 216l-259 -472c31 -20 67 -31 108 -31z" />
    <glyph glyph-name="Otilde" unicode="&#xd5;" horiz-adv-x="680" 
d="M395 770c-52 0 -79 38 -115 38c-20 0 -31 -11 -36 -33h-47c4 57 37 93 87 93c52 0 79 -38 115 -38c20 0 31 11 36 33h47c-4 -57 -37 -93 -87 -93zM340 -15c-177 0 -295 146 -295 365s118 365 295 365s295 -146 295 -365s-118 -365 -295 -365zM340 63
c131 0 212 110 212 287s-81 287 -212 287s-212 -110 -212 -287s81 -287 212 -287z" />
    <glyph glyph-name="uni1E4C" unicode="&#x1e4c;" horiz-adv-x="680" 
d="M363 898h-70l74 116h98zM395 770c-52 0 -79 38 -115 38c-20 0 -31 -11 -36 -33h-47c4 57 37 93 87 93c52 0 79 -38 115 -38c20 0 31 11 36 33h47c-4 -57 -37 -93 -87 -93zM340 -15c-177 0 -295 146 -295 365s118 365 295 365s295 -146 295 -365s-118 -365 -295 -365z
M340 63c131 0 212 110 212 287s-81 287 -212 287s-212 -110 -212 -287s81 -287 212 -287z" />
    <glyph glyph-name="OE" unicode="&#x152;" horiz-adv-x="938" 
d="M340 -15c-177 0 -295 146 -295 365s118 365 295 365c60 0 112 -15 155 -47h2v32h386v-78h-303v-224h275v-75h-275v-245h303v-78h-386v31h-2c-43 -31 -95 -46 -155 -46zM340 63c67 0 121 24 157 71v432c-36 46 -90 71 -157 71c-131 0 -212 -110 -212 -287
s81 -287 212 -287z" />
    <glyph glyph-name="P" unicode="P" horiz-adv-x="615" 
d="M168 0h-82v700h270c148 0 234 -83 234 -216c0 -134 -86 -214 -234 -214h-188v-270zM168 622v-274h183c106 0 156 43 156 136s-51 138 -156 138h-183z" />
    <glyph glyph-name="Thorn" unicode="&#xde;" horiz-adv-x="615" 
d="M168 568h188c144 0 234 -83 234 -216c0 -134 -88 -215 -234 -215h-188v-137h-82v700h82v-132zM168 215h183c106 0 156 44 156 137s-51 138 -156 138h-183v-275z" />
    <glyph glyph-name="Q" unicode="Q" horiz-adv-x="680" 
d="M635 350c0 -101 -25 -187 -70 -250l65 -69l-51 -46l-60 64c-48 -41 -109 -64 -179 -64c-177 0 -295 146 -295 365s118 365 295 365s295 -146 295 -365zM340 63c49 0 91 15 125 44l-145 155l52 46l137 -147c28 48 43 112 43 189c0 177 -81 287 -212 287
s-212 -110 -212 -287s81 -287 212 -287z" />
    <glyph glyph-name="R" unicode="R" horiz-adv-x="609" 
d="M399 290v-2l154 -288h-97l-148 284h-140v-284h-82v700h255c146 0 233 -78 233 -207c0 -111 -65 -185 -175 -203zM168 622v-260h166c103 0 157 45 157 131c0 85 -53 129 -157 129h-166z" />
    <glyph glyph-name="Racute" unicode="&#x154;" horiz-adv-x="609" 
d="M332 876h98l-102 -116h-70zM399 290v-2l154 -288h-97l-148 284h-140v-284h-82v700h255c146 0 233 -78 233 -207c0 -111 -65 -185 -175 -203zM168 622v-260h166c103 0 157 45 157 131c0 85 -53 129 -157 129h-166z" />
    <glyph glyph-name="Rcaron" unicode="&#x158;" horiz-adv-x="609" 
d="M425 835l-66 -85h-108l-66 85l47 37l73 -92l73 92zM399 290v-2l154 -288h-97l-148 284h-140v-284h-82v700h255c146 0 233 -78 233 -207c0 -111 -65 -185 -175 -203zM168 622v-260h166c103 0 157 45 157 131c0 85 -53 129 -157 129h-166z" />
    <glyph glyph-name="uni0156" unicode="&#x156;" horiz-adv-x="609" 
d="M399 290v-2l154 -288h-97l-148 284h-140v-284h-82v700h255c146 0 233 -78 233 -207c0 -111 -65 -185 -175 -203zM168 622v-260h166c103 0 157 45 157 131c0 85 -53 129 -157 129h-166zM308 -146h-45v96h104v-84c0 -62 -34 -97 -99 -101v37c28 5 40 21 40 52z" />
    <glyph glyph-name="S" unicode="S" horiz-adv-x="602" 
d="M323 -15c-171 0 -273 87 -288 247l82 14c14 -124 80 -183 207 -183c97 0 161 45 161 113c0 71 -47 110 -193 156c-167 55 -223 104 -223 198c0 109 92 185 224 185s231 -79 254 -204l-81 -17c-22 93 -83 143 -174 143c-85 0 -141 -42 -141 -107c0 -54 40 -83 168 -123
c182 -59 248 -120 248 -230c0 -114 -99 -192 -244 -192z" />
    <glyph glyph-name="Sacute" unicode="&#x15a;" horiz-adv-x="602" 
d="M316 775h-70l74 116h98zM323 -15c-171 0 -273 87 -288 247l82 14c14 -124 80 -183 207 -183c97 0 161 45 161 113c0 71 -47 110 -193 156c-167 55 -223 104 -223 198c0 109 92 185 224 185s231 -79 254 -204l-81 -17c-22 93 -83 143 -174 143c-85 0 -141 -42 -141 -107
c0 -54 40 -83 168 -123c182 -59 248 -120 248 -230c0 -114 -99 -192 -244 -192z" />
    <glyph glyph-name="Scaron" unicode="&#x160;" horiz-adv-x="602" 
d="M414 850l-66 -85h-108l-66 85l47 37l73 -92l73 92zM319 407c182 -59 248 -120 248 -230c0 -114 -99 -192 -244 -192c-171 0 -273 87 -288 247l82 14c14 -124 80 -183 207 -183c97 0 161 45 161 113c0 71 -47 110 -193 156c-167 55 -223 104 -223 198
c0 109 92 185 224 185s231 -79 254 -204l-81 -17c-22 93 -83 143 -174 143c-85 0 -141 -42 -141 -107c0 -54 40 -83 168 -123z" />
    <glyph glyph-name="Scedilla" unicode="&#x15e;" horiz-adv-x="602" 
d="M567 177c0 -107 -88 -183 -219 -191l-28 -49c10 4 21 6 34 6c49 0 92 -33 92 -83c0 -55 -45 -91 -103 -91c-37 0 -72 13 -102 40l34 41c21 -20 43 -30 68 -30c29 0 48 17 48 41c0 25 -21 40 -47 40c-22 0 -39 -7 -55 -26l-43 19l49 92c-154 9 -246 95 -260 246l82 14
c14 -124 80 -183 207 -183c97 0 161 45 161 113c0 71 -47 110 -193 156c-167 55 -223 104 -223 198c0 109 92 185 224 185s231 -79 254 -204l-81 -17c-22 93 -83 143 -174 143c-85 0 -141 -42 -141 -107c0 -54 40 -83 168 -123c182 -59 248 -120 248 -230z" />
    <glyph glyph-name="Scircumflex" unicode="&#x15c;" horiz-adv-x="602" 
d="M367 755l-73 92l-73 -92l-47 37l66 85h107l67 -85zM319 407c182 -59 248 -120 248 -230c0 -114 -99 -192 -244 -192c-171 0 -273 87 -288 247l82 14c14 -124 80 -183 207 -183c97 0 161 45 161 113c0 71 -47 110 -193 156c-167 55 -223 104 -223 198
c0 109 92 185 224 185s231 -79 254 -204l-81 -17c-22 93 -83 143 -174 143c-85 0 -141 -42 -141 -107c0 -54 40 -83 168 -123z" />
    <glyph glyph-name="uni0218" unicode="&#x218;" horiz-adv-x="602" 
d="M323 -15c-171 0 -273 87 -288 247l82 14c14 -124 80 -183 207 -183c97 0 161 45 161 113c0 71 -47 110 -193 156c-167 55 -223 104 -223 198c0 109 92 185 224 185s231 -79 254 -204l-81 -17c-22 93 -83 143 -174 143c-85 0 -141 -42 -141 -107c0 -54 40 -83 168 -123
c182 -59 248 -120 248 -230c0 -114 -99 -192 -244 -192zM276 -250v37c28 5 40 21 40 52h-45v96h104v-84c0 -62 -34 -97 -99 -101z" />
    <glyph glyph-name="uni1E62" unicode="&#x1e62;" horiz-adv-x="602" 
d="M323 -15c-171 0 -273 87 -288 247l82 14c14 -124 80 -183 207 -183c97 0 161 45 161 113c0 71 -47 110 -193 156c-167 55 -223 104 -223 198c0 109 92 185 224 185s231 -79 254 -204l-81 -17c-22 93 -83 143 -174 143c-85 0 -141 -42 -141 -107c0 -54 40 -83 168 -123
c182 -59 248 -120 248 -230c0 -114 -99 -192 -244 -192zM371 -159h-96v94h96v-94z" />
    <glyph glyph-name="uni1E9E" unicode="&#x1e9e;" horiz-adv-x="645" 
d="M579 636l-200 -220c140 -11 221 -90 221 -203c0 -133 -103 -213 -275 -213h-75v78h75c124 0 192 47 192 135c0 90 -67 139 -190 139h-47v61l191 208l-164 1c-97 0 -139 -37 -139 -141v-481h-82v481c0 146 73 219 222 219h271v-64z" />
    <glyph glyph-name="uni018F" unicode="&#x18f;" horiz-adv-x="672" 
d="M335 -15c-176 0 -290 140 -290 365v30h497c-4 159 -84 257 -207 257c-91 0 -158 -51 -192 -151l-77 27c49 132 144 202 269 202c177 0 292 -144 292 -366c0 -220 -115 -364 -292 -364zM335 63c120 0 197 91 207 244h-410c5 -155 84 -244 203 -244z" />
    <glyph glyph-name="T" unicode="T" horiz-adv-x="589" 
d="M336 0h-83v622h-218v78h519v-78h-218v-622z" />
    <glyph glyph-name="Tbar" unicode="&#x166;" horiz-adv-x="589" 
d="M554 700v-78h-218v-236h134v-69h-134v-317h-83v317h-135v69h135v236h-218v78h519z" />
    <glyph glyph-name="Tcaron" unicode="&#x164;" horiz-adv-x="589" 
d="M415 835l-66 -85h-108l-66 85l47 37l73 -92l73 92zM35 622v78h519v-78h-218v-622h-83v622h-218z" />
    <glyph glyph-name="uni0162" unicode="&#x162;" horiz-adv-x="589" 
d="M336 622v-622h-17l-28 -48c10 4 21 6 34 6c49 0 92 -33 92 -83c0 -55 -45 -91 -103 -91c-37 0 -72 13 -102 40l34 41c21 -20 43 -30 68 -30c29 0 48 17 48 41c0 25 -21 40 -47 40c-22 0 -39 -7 -55 -26l-43 19l49 91h-13v622h-218v78h519v-78h-218z" />
    <glyph glyph-name="uni021A" unicode="&#x21a;" horiz-adv-x="589" 
d="M336 0h-83v622h-218v78h519v-78h-218v-622zM247 -235v37c28 5 40 21 40 52h-45v96h104v-84c0 -62 -34 -97 -99 -101z" />
    <glyph glyph-name="uni1E6C" unicode="&#x1e6c;" horiz-adv-x="589" 
d="M336 0h-83v622h-218v78h519v-78h-218v-622zM342 -144h-96v94h96v-94z" />
    <glyph glyph-name="U" unicode="U" horiz-adv-x="662" 
d="M330 -15c-161 0 -249 87 -249 243v472h82v-466c0 -113 57 -171 167 -171c111 0 169 59 169 169v468h83v-472c0 -156 -90 -243 -252 -243z" />
    <glyph glyph-name="Uacute" unicode="&#xda;" horiz-adv-x="662" 
d="M354 760h-70l74 116h98zM330 -15c-161 0 -249 87 -249 243v472h82v-466c0 -113 57 -171 167 -171c111 0 169 59 169 169v468h83v-472c0 -156 -90 -243 -252 -243z" />
    <glyph glyph-name="Ubreve" unicode="&#x16c;" horiz-adv-x="662" 
d="M332 750c-76 0 -124 46 -128 121h49c6 -36 35 -56 79 -56c43 0 72 20 78 56h49c-4 -75 -52 -121 -127 -121zM330 -15c-161 0 -249 87 -249 243v472h82v-466c0 -113 57 -171 167 -171c111 0 169 59 169 169v468h83v-472c0 -156 -90 -243 -252 -243z" />
    <glyph glyph-name="uni01D3" unicode="&#x1d3;" horiz-adv-x="662" 
d="M451 835l-66 -85h-108l-66 85l47 37l73 -92l73 92zM499 232v468h83v-472c0 -156 -90 -243 -252 -243c-161 0 -249 87 -249 243v472h82v-466c0 -113 57 -171 167 -171c111 0 169 59 169 169z" />
    <glyph glyph-name="Ucircumflex" unicode="&#xdb;" horiz-adv-x="662" 
d="M404 740l-73 92l-73 -92l-47 37l66 85h107l67 -85zM499 232v468h83v-472c0 -156 -90 -243 -252 -243c-161 0 -249 87 -249 243v472h82v-466c0 -113 57 -171 167 -171c111 0 169 59 169 169z" />
    <glyph glyph-name="Udieresis" unicode="&#xdc;" horiz-adv-x="662" 
d="M289 750h-96v94h96v-94zM469 750h-96v94h96v-94zM330 -15c-161 0 -249 87 -249 243v472h82v-466c0 -113 57 -171 167 -171c111 0 169 59 169 169v468h83v-472c0 -156 -90 -243 -252 -243z" />
    <glyph glyph-name="uni01D7" unicode="&#x1d7;" horiz-adv-x="662" 
d="M354 884h-70l74 116h98zM289 750h-96v94h96v-94zM469 750h-96v94h96v-94zM330 -15c-161 0 -249 87 -249 243v472h82v-466c0 -113 57 -171 167 -171c111 0 169 59 169 169v468h83v-472c0 -156 -90 -243 -252 -243z" />
    <glyph glyph-name="uni01D9" unicode="&#x1d9;" horiz-adv-x="662" 
d="M451 959l-66 -85h-108l-66 85l47 37l73 -92l73 92zM193 844h96v-94h-96v94zM469 750h-96v94h96v-94zM499 232v468h83v-472c0 -156 -90 -243 -252 -243c-161 0 -249 87 -249 243v472h82v-466c0 -113 57 -171 167 -171c111 0 169 59 169 169z" />
    <glyph glyph-name="uni01DB" unicode="&#x1db;" horiz-adv-x="662" 
d="M381 884h-70l-102 116h98zM289 750h-96v94h96v-94zM469 750h-96v94h96v-94zM330 -15c-161 0 -249 87 -249 243v472h82v-466c0 -113 57 -171 167 -171c111 0 169 59 169 169v468h83v-472c0 -156 -90 -243 -252 -243z" />
    <glyph glyph-name="uni01D5" unicode="&#x1d5;" horiz-adv-x="662" 
d="M465 884h-267v63h267v-63zM289 750h-96v94h96v-94zM469 750h-96v94h96v-94zM330 -15c-161 0 -249 87 -249 243v472h82v-466c0 -113 57 -171 167 -171c111 0 169 59 169 169v468h83v-472c0 -156 -90 -243 -252 -243z" />
    <glyph glyph-name="uni1EE4" unicode="&#x1ee4;" horiz-adv-x="662" 
d="M330 -15c-161 0 -249 87 -249 243v472h82v-466c0 -113 57 -171 167 -171c111 0 169 59 169 169v468h83v-472c0 -156 -90 -243 -252 -243zM378 -159h-96v94h96v-94z" />
    <glyph glyph-name="Ugrave" unicode="&#xd9;" horiz-adv-x="662" 
d="M381 760h-70l-102 116h98zM330 -15c-161 0 -249 87 -249 243v472h82v-466c0 -113 57 -171 167 -171c111 0 169 59 169 169v468h83v-472c0 -156 -90 -243 -252 -243z" />
    <glyph glyph-name="uni1EE6" unicode="&#x1ee6;" horiz-adv-x="662" 
d="M332 851c-18 0 -36 -7 -62 -26l-25 41c34 22 64 32 92 32c51 0 84 -27 84 -63c0 -28 -26 -53 -64 -65v-20h-53v48h1c40 5 60 15 60 31c0 13 -13 22 -33 22zM499 232v468h83v-472c0 -156 -90 -243 -252 -243c-161 0 -249 87 -249 243v472h82v-466c0 -113 57 -171 167 -171
c111 0 169 59 169 169z" />
    <glyph glyph-name="Uhorn" unicode="&#x1af;" horiz-adv-x="662" 
d="M602 788h59c0 -96 -25 -130 -79 -136v-424c0 -156 -90 -243 -252 -243c-161 0 -249 87 -249 243v472h82v-466c0 -113 57 -171 167 -171c111 0 169 59 169 169v468h56c36 0 47 14 47 88z" />
    <glyph glyph-name="uni1EE8" unicode="&#x1ee8;" horiz-adv-x="662" 
d="M358 876h98l-102 -116h-70zM602 788h59c0 -96 -25 -130 -79 -136v-424c0 -156 -90 -243 -252 -243c-161 0 -249 87 -249 243v472h82v-466c0 -113 57 -171 167 -171c111 0 169 59 169 169v468h56c36 0 47 14 47 88z" />
    <glyph glyph-name="uni1EF0" unicode="&#x1ef0;" horiz-adv-x="662" 
d="M602 788h59c0 -96 -25 -130 -79 -136v-424c0 -156 -90 -243 -252 -243c-161 0 -249 87 -249 243v472h82v-466c0 -113 57 -171 167 -171c111 0 169 59 169 169v468h56c36 0 47 14 47 88zM378 -159h-96v94h96v-94z" />
    <glyph glyph-name="uni1EEA" unicode="&#x1eea;" horiz-adv-x="662" 
d="M307 876l74 -116h-70l-102 116h98zM602 788h59c0 -96 -25 -130 -79 -136v-424c0 -156 -90 -243 -252 -243c-161 0 -249 87 -249 243v472h82v-466c0 -113 57 -171 167 -171c111 0 169 59 169 169v468h56c36 0 47 14 47 88z" />
    <glyph glyph-name="uni1EEC" unicode="&#x1eec;" horiz-adv-x="662" 
d="M332 851c-18 0 -36 -7 -62 -26l-25 41c34 22 64 32 92 32c51 0 84 -27 84 -63c0 -28 -26 -53 -64 -65v-20h-53v48h1c40 5 60 15 60 31c0 13 -13 22 -33 22zM602 788h59c0 -96 -25 -130 -79 -136v-424c0 -156 -90 -243 -252 -243c-161 0 -249 87 -249 243v472h82v-466
c0 -113 57 -171 167 -171c111 0 169 59 169 169v468h56c36 0 47 14 47 88z" />
    <glyph glyph-name="uni1EEE" unicode="&#x1eee;" horiz-adv-x="662" 
d="M271 793c-20 0 -31 -11 -36 -33h-47c4 57 37 93 87 93c52 0 79 -38 115 -38c20 0 31 11 36 33h47c-4 -57 -37 -93 -87 -93c-52 0 -79 38 -115 38zM602 788h59c0 -96 -25 -130 -79 -136v-424c0 -156 -90 -243 -252 -243c-161 0 -249 87 -249 243v472h82v-466
c0 -113 57 -171 167 -171c111 0 169 59 169 169v468h56c36 0 47 14 47 88z" />
    <glyph glyph-name="Uhungarumlaut" unicode="&#x170;" horiz-adv-x="662" 
d="M268 760h-70l74 116h98zM422 760h-70l74 116h98zM330 -15c-161 0 -249 87 -249 243v472h82v-466c0 -113 57 -171 167 -171c111 0 169 59 169 169v468h83v-472c0 -156 -90 -243 -252 -243z" />
    <glyph glyph-name="Umacron" unicode="&#x16a;" horiz-adv-x="662" 
d="M465 760h-267v63h267v-63zM330 -15c-161 0 -249 87 -249 243v472h82v-466c0 -113 57 -171 167 -171c111 0 169 59 169 169v468h83v-472c0 -156 -90 -243 -252 -243z" />
    <glyph glyph-name="Uogonek" unicode="&#x172;" horiz-adv-x="662" 
d="M499 232v468h83v-472c0 -119 -52 -198 -149 -228c-43 -24 -77 -57 -77 -99c0 -24 12 -35 34 -35c19 0 39 7 59 18l24 -63c-28 -13 -59 -21 -94 -21c-57 0 -91 32 -89 85c2 34 25 70 62 101c-7 -1 -14 -1 -22 -1c-161 0 -249 87 -249 243v472h82v-466
c0 -113 57 -171 167 -171c111 0 169 59 169 169z" />
    <glyph glyph-name="Uring" unicode="&#x16e;" horiz-adv-x="662" 
d="M331 652c-70 0 -122 48 -122 113c0 66 52 114 122 114c71 0 122 -48 122 -114c0 -65 -51 -113 -122 -113zM331 700c38 0 66 27 66 65c0 39 -28 66 -66 66s-65 -27 -65 -66c0 -38 27 -65 65 -65zM330 -15c-161 0 -249 87 -249 243v472h82v-466c0 -113 57 -171 167 -171
c111 0 169 59 169 169v468h83v-472c0 -156 -90 -243 -252 -243z" />
    <glyph glyph-name="Utilde" unicode="&#x168;" horiz-adv-x="662" 
d="M386 755c-52 0 -79 38 -115 38c-20 0 -31 -11 -36 -33h-47c4 57 37 93 87 93c52 0 79 -38 115 -38c20 0 31 11 36 33h47c-4 -57 -37 -93 -87 -93zM330 -15c-161 0 -249 87 -249 243v472h82v-466c0 -113 57 -171 167 -171c111 0 169 59 169 169v468h83v-472
c0 -156 -90 -243 -252 -243z" />
    <glyph glyph-name="V" unicode="V" horiz-adv-x="602" 
d="M345 0h-88l-252 700h87l208 -590h2l209 590h86z" />
    <glyph glyph-name="W" unicode="W" horiz-adv-x="845" 
d="M250 0h-101l-129 700h85l103 -569h2l173 569h78l174 -569h2l103 569h85l-130 -700h-100l-172 562h-2z" />
    <glyph glyph-name="Wacute" unicode="&#x1e82;" horiz-adv-x="845" 
d="M445 760h-70l74 116h98zM250 0h-101l-129 700h85l103 -569h2l173 569h78l174 -569h2l103 569h85l-130 -700h-100l-172 562h-2z" />
    <glyph glyph-name="Wcircumflex" unicode="&#x174;" horiz-adv-x="845" 
d="M496 740l-73 92l-73 -92l-47 37l66 85h107l67 -85zM637 131l103 569h85l-130 -700h-100l-172 562h-2l-171 -562h-101l-129 700h85l103 -569h2l173 569h78l174 -569h2z" />
    <glyph glyph-name="Wdieresis" unicode="&#x1e84;" horiz-adv-x="845" 
d="M380 750h-96v94h96v-94zM560 750h-96v94h96v-94zM250 0h-101l-129 700h85l103 -569h2l173 569h78l174 -569h2l103 569h85l-130 -700h-100l-172 562h-2z" />
    <glyph glyph-name="Wgrave" unicode="&#x1e80;" horiz-adv-x="845" 
d="M472 760h-70l-102 116h98zM250 0h-101l-129 700h85l103 -569h2l173 569h78l174 -569h2l103 569h85l-130 -700h-100l-172 562h-2z" />
    <glyph glyph-name="X" unicode="X" horiz-adv-x="553" 
d="M107 0h-97l216 355l-210 345h97l163 -280h2l163 280h97l-210 -345l215 -355h-96l-169 290h-2z" />
    <glyph glyph-name="Y" unicode="Y" horiz-adv-x="573" 
d="M328 0h-83v292l-245 408h96l189 -327h2l190 327h96l-245 -408v-292z" />
    <glyph glyph-name="Yacute" unicode="&#xdd;" horiz-adv-x="573" 
d="M309 760h-70l74 116h98zM328 0h-83v292l-245 408h96l189 -327h2l190 327h96l-245 -408v-292z" />
    <glyph glyph-name="Ycircumflex" unicode="&#x176;" horiz-adv-x="573" 
d="M360 740l-73 92l-73 -92l-47 37l66 85h107l67 -85zM287 373l190 327h96l-245 -408v-292h-83v292l-245 408h96l189 -327h2z" />
    <glyph glyph-name="Ydieresis" unicode="&#x178;" horiz-adv-x="573" 
d="M244 750h-96v94h96v-94zM424 750h-96v94h96v-94zM328 0h-83v292l-245 408h96l189 -327h2l190 327h96l-245 -408v-292z" />
    <glyph glyph-name="uni1EF4" unicode="&#x1ef4;" horiz-adv-x="573" 
d="M328 0h-83v292l-245 408h96l189 -327h2l190 327h96l-245 -408v-292zM334 -144h-96v94h96v-94z" />
    <glyph glyph-name="Ygrave" unicode="&#x1ef2;" horiz-adv-x="573" 
d="M336 760h-70l-102 116h98zM328 0h-83v292l-245 408h96l189 -327h2l190 327h96l-245 -408v-292z" />
    <glyph glyph-name="uni1EF6" unicode="&#x1ef6;" horiz-adv-x="573" 
d="M287 851c-18 0 -36 -7 -62 -26l-25 41c34 22 64 32 92 32c51 0 84 -27 84 -63c0 -28 -26 -53 -64 -65v-20h-53v48h1c40 5 60 15 60 31c0 13 -13 22 -33 22zM287 373l190 327h96l-245 -408v-292h-83v292l-245 408h96l189 -327h2z" />
    <glyph glyph-name="uni1EF8" unicode="&#x1ef8;" horiz-adv-x="573" 
d="M341 755c-52 0 -79 38 -115 38c-20 0 -31 -11 -36 -33h-47c4 57 37 93 87 93c52 0 79 -38 115 -38c20 0 31 11 36 33h47c-4 -57 -37 -93 -87 -93zM328 0h-83v292l-245 408h96l189 -327h2l190 327h96l-245 -408v-292z" />
    <glyph glyph-name="Z" unicode="Z" horiz-adv-x="593" 
d="M538 0h-493v70l403 550v2h-387v78h487v-70l-402 -550v-2h392v-78z" />
    <glyph glyph-name="Zacute" unicode="&#x179;" horiz-adv-x="593" 
d="M328 760h-70l74 116h98zM538 0h-493v70l403 550v2h-387v78h487v-70l-402 -550v-2h392v-78z" />
    <glyph glyph-name="Zcaron" unicode="&#x17d;" horiz-adv-x="593" 
d="M425 835l-66 -85h-108l-66 85l47 37l73 -92l73 92zM548 700v-70l-402 -550v-2h392v-78h-493v70l403 550v2h-387v78h487z" />
    <glyph glyph-name="Zdotaccent" unicode="&#x17b;" horiz-adv-x="593" 
d="M353 760h-96v94h96v-94zM538 0h-493v70l403 550v2h-387v78h487v-70l-402 -550v-2h392v-78z" />
    <glyph glyph-name="uni1E92" unicode="&#x1e92;" horiz-adv-x="593" 
d="M538 0h-493v70l403 550v2h-387v78h487v-70l-402 -550v-2h392v-78zM345 -144h-96v94h96v-94z" />
    <glyph glyph-name="a" unicode="a" horiz-adv-x="510" 
d="M220 -15c-107 0 -174 58 -174 150c0 90 53 136 186 168c102 25 135 47 135 90c0 49 -43 81 -109 81c-70 0 -119 -43 -133 -114l-79 15c18 104 101 170 212 170c119 0 191 -66 191 -172v-373h-73v56h-2c-32 -44 -90 -71 -154 -71zM226 58c85 0 145 51 145 121v119h-2
c-11 -26 -45 -44 -116 -62c-93 -24 -129 -50 -129 -96c0 -53 36 -82 102 -82z" />
    <glyph glyph-name="aacute" unicode="&#xe1;" horiz-adv-x="510" 
d="M281 605h-70l74 116h98zM220 -15c-107 0 -174 58 -174 150c0 90 53 136 186 168c102 25 135 47 135 90c0 49 -43 81 -109 81c-70 0 -119 -43 -133 -114l-79 15c18 104 101 170 212 170c119 0 191 -66 191 -172v-373h-73v56h-2c-32 -44 -90 -71 -154 -71zM226 58
c85 0 145 51 145 121v119h-2c-11 -26 -45 -44 -116 -62c-93 -24 -129 -50 -129 -96c0 -53 36 -82 102 -82z" />
    <glyph glyph-name="abreve" unicode="&#x103;" horiz-adv-x="510" 
d="M259 595c-76 0 -124 46 -128 121h49c6 -36 35 -56 79 -56c43 0 72 20 78 56h49c-4 -75 -52 -121 -127 -121zM220 -15c-107 0 -174 58 -174 150c0 90 53 136 186 168c102 25 135 47 135 90c0 49 -43 81 -109 81c-70 0 -119 -43 -133 -114l-79 15c18 104 101 170 212 170
c119 0 191 -66 191 -172v-373h-73v56h-2c-32 -44 -90 -71 -154 -71zM226 58c85 0 145 51 145 121v119h-2c-11 -26 -45 -44 -116 -62c-93 -24 -129 -50 -129 -96c0 -53 36 -82 102 -82z" />
    <glyph glyph-name="uni1EAF" unicode="&#x1eaf;" horiz-adv-x="510" 
d="M280 736h-69l73 116h99zM259 595c-76 0 -124 46 -128 121h49c6 -36 35 -56 79 -56c43 0 72 20 78 56h49c-4 -75 -52 -121 -127 -121zM220 -15c-107 0 -174 58 -174 150c0 90 53 136 186 168c102 25 135 47 135 90c0 49 -43 81 -109 81c-70 0 -119 -43 -133 -114l-79 15
c18 104 101 170 212 170c119 0 191 -66 191 -172v-373h-73v56h-2c-32 -44 -90 -71 -154 -71zM226 58c85 0 145 51 145 121v119h-2c-11 -26 -45 -44 -116 -62c-93 -24 -129 -50 -129 -96c0 -53 36 -82 102 -82z" />
    <glyph glyph-name="uni1EB7" unicode="&#x1eb7;" horiz-adv-x="510" 
d="M259 595c-76 0 -124 46 -128 121h49c6 -36 35 -56 79 -56c43 0 72 20 78 56h49c-4 -75 -52 -121 -127 -121zM220 -15c-107 0 -174 58 -174 150c0 90 53 136 186 168c102 25 135 47 135 90c0 49 -43 81 -109 81c-70 0 -119 -43 -133 -114l-79 15c18 104 101 170 212 170
c119 0 191 -66 191 -172v-373h-73v56h-2c-32 -44 -90 -71 -154 -71zM226 58c85 0 145 51 145 121v119h-2c-11 -26 -45 -44 -116 -62c-93 -24 -129 -50 -129 -96c0 -53 36 -82 102 -82zM308 -159h-96v94h96v-94z" />
    <glyph glyph-name="uni1EB1" unicode="&#x1eb1;" horiz-adv-x="510" 
d="M307 736h-69l-103 116h99zM259 595c-76 0 -124 46 -128 121h49c6 -36 35 -56 79 -56c43 0 72 20 78 56h49c-4 -75 -52 -121 -127 -121zM220 -15c-107 0 -174 58 -174 150c0 90 53 136 186 168c102 25 135 47 135 90c0 49 -43 81 -109 81c-70 0 -119 -43 -133 -114l-79 15
c18 104 101 170 212 170c119 0 191 -66 191 -172v-373h-73v56h-2c-32 -44 -90 -71 -154 -71zM226 58c85 0 145 51 145 121v119h-2c-11 -26 -45 -44 -116 -62c-93 -24 -129 -50 -129 -96c0 -53 36 -82 102 -82z" />
    <glyph glyph-name="uni1EB3" unicode="&#x1eb3;" horiz-adv-x="510" 
d="M257 809c-17 0 -34 -7 -60 -25l-23 40c32 20 61 30 87 30c48 0 80 -26 80 -61c0 -27 -24 -49 -60 -61v-19h-51v45c39 5 58 14 58 30c0 12 -12 21 -31 21zM259 595c-76 0 -124 46 -128 121h49c6 -36 35 -56 79 -56c43 0 72 20 78 56h49c-4 -75 -52 -121 -127 -121z
M258 545c119 0 191 -66 191 -172v-373h-73v56h-2c-32 -44 -90 -71 -154 -71c-107 0 -174 58 -174 150c0 90 53 136 186 168c102 25 135 47 135 90c0 49 -43 81 -109 81c-70 0 -119 -43 -133 -114l-79 15c18 104 101 170 212 170zM371 179v119h-2c-11 -26 -45 -44 -116 -62
c-93 -24 -129 -50 -129 -96c0 -53 36 -82 102 -82c85 0 145 51 145 121z" />
    <glyph glyph-name="uni1EB5" unicode="&#x1eb5;" horiz-adv-x="510" 
d="M308 740c-46 0 -70 37 -102 37c-18 0 -28 -11 -32 -32h-42c3 55 33 88 77 88c46 0 70 -36 102 -36c18 0 28 11 32 32h42c-4 -55 -33 -89 -77 -89zM259 595c-76 0 -124 46 -128 121h49c6 -36 35 -56 79 -56c43 0 72 20 78 56h49c-4 -75 -52 -121 -127 -121zM220 -15
c-107 0 -174 58 -174 150c0 90 53 136 186 168c102 25 135 47 135 90c0 49 -43 81 -109 81c-70 0 -119 -43 -133 -114l-79 15c18 104 101 170 212 170c119 0 191 -66 191 -172v-373h-73v56h-2c-32 -44 -90 -71 -154 -71zM226 58c85 0 145 51 145 121v119h-2
c-11 -26 -45 -44 -116 -62c-93 -24 -129 -50 -129 -96c0 -53 36 -82 102 -82z" />
    <glyph glyph-name="uni01CE" unicode="&#x1ce;" horiz-adv-x="510" 
d="M378 680l-66 -85h-108l-66 85l47 37l73 -92l73 92zM258 545c119 0 191 -66 191 -172v-373h-73v56h-2c-32 -44 -90 -71 -154 -71c-107 0 -174 58 -174 150c0 90 53 136 186 168c102 25 135 47 135 90c0 49 -43 81 -109 81c-70 0 -119 -43 -133 -114l-79 15
c18 104 101 170 212 170zM371 179v119h-2c-11 -26 -45 -44 -116 -62c-93 -24 -129 -50 -129 -96c0 -53 36 -82 102 -82c85 0 145 51 145 121z" />
    <glyph glyph-name="acircumflex" unicode="&#xe2;" horiz-adv-x="510" 
d="M331 585l-73 92l-73 -92l-47 37l66 85h107l67 -85zM258 545c119 0 191 -66 191 -172v-373h-73v56h-2c-32 -44 -90 -71 -154 -71c-107 0 -174 58 -174 150c0 90 53 136 186 168c102 25 135 47 135 90c0 49 -43 81 -109 81c-70 0 -119 -43 -133 -114l-79 15
c18 104 101 170 212 170zM371 179v119h-2c-11 -26 -45 -44 -116 -62c-93 -24 -129 -50 -129 -96c0 -53 36 -82 102 -82c85 0 145 51 145 121z" />
    <glyph glyph-name="uni1EA5" unicode="&#x1ea5;" horiz-adv-x="510" 
d="M427 776h89l-93 -104h-62zM331 585l-73 92l-73 -92l-47 37l66 85h107l67 -85zM258 545c119 0 191 -66 191 -172v-373h-73v56h-2c-32 -44 -90 -71 -154 -71c-107 0 -174 58 -174 150c0 90 53 136 186 168c102 25 135 47 135 90c0 49 -43 81 -109 81
c-70 0 -119 -43 -133 -114l-79 15c18 104 101 170 212 170zM371 179v119h-2c-11 -26 -45 -44 -116 -62c-93 -24 -129 -50 -129 -96c0 -53 36 -82 102 -82c85 0 145 51 145 121z" />
    <glyph glyph-name="uni1EAD" unicode="&#x1ead;" horiz-adv-x="510" 
d="M331 585l-73 92l-73 -92l-47 37l66 85h107l67 -85zM258 545c119 0 191 -66 191 -172v-373h-73v56h-2c-32 -44 -90 -71 -154 -71c-107 0 -174 58 -174 150c0 90 53 136 186 168c102 25 135 47 135 90c0 49 -43 81 -109 81c-70 0 -119 -43 -133 -114l-79 15
c18 104 101 170 212 170zM371 179v119h-2c-11 -26 -45 -44 -116 -62c-93 -24 -129 -50 -129 -96c0 -53 36 -82 102 -82c85 0 145 51 145 121zM308 -159h-96v94h96v-94z" />
    <glyph glyph-name="uni1EA7" unicode="&#x1ea7;" horiz-adv-x="510" 
d="M381 776l66 -104h-62l-93 104h89zM331 585l-73 92l-73 -92l-47 37l66 85h107l67 -85zM258 545c119 0 191 -66 191 -172v-373h-73v56h-2c-32 -44 -90 -71 -154 -71c-107 0 -174 58 -174 150c0 90 53 136 186 168c102 25 135 47 135 90c0 49 -43 81 -109 81
c-70 0 -119 -43 -133 -114l-79 15c18 104 101 170 212 170zM371 179v119h-2c-11 -26 -45 -44 -116 -62c-93 -24 -129 -50 -129 -96c0 -53 36 -82 102 -82c85 0 145 51 145 121z" />
    <glyph glyph-name="uni1EA9" unicode="&#x1ea9;" horiz-adv-x="510" 
d="M396 804c45 0 76 -24 76 -57c0 -25 -24 -47 -58 -58v-18h-49v43h1c37 4 55 13 55 28c0 12 -12 20 -30 20c-16 0 -32 -7 -56 -23l-22 37c30 19 58 28 83 28zM331 585l-73 92l-73 -92l-47 37l66 85h107l67 -85zM258 545c119 0 191 -66 191 -172v-373h-73v56h-2
c-32 -44 -90 -71 -154 -71c-107 0 -174 58 -174 150c0 90 53 136 186 168c102 25 135 47 135 90c0 49 -43 81 -109 81c-70 0 -119 -43 -133 -114l-79 15c18 104 101 170 212 170zM371 179v119h-2c-11 -26 -45 -44 -116 -62c-93 -24 -129 -50 -129 -96c0 -53 36 -82 102 -82
c85 0 145 51 145 121z" />
    <glyph glyph-name="uni1EAB" unicode="&#x1eab;" horiz-adv-x="510" 
d="M207 765c-16 0 -26 -10 -30 -31h-39c3 54 31 88 73 88c43 0 66 -37 96 -37c17 0 26 11 30 32h40c-4 -54 -32 -88 -73 -88c-44 0 -66 36 -97 36zM331 585l-73 92l-73 -92l-47 37l66 85h107l67 -85zM258 545c119 0 191 -66 191 -172v-373h-73v56h-2
c-32 -44 -90 -71 -154 -71c-107 0 -174 58 -174 150c0 90 53 136 186 168c102 25 135 47 135 90c0 49 -43 81 -109 81c-70 0 -119 -43 -133 -114l-79 15c18 104 101 170 212 170zM371 179v119h-2c-11 -26 -45 -44 -116 -62c-93 -24 -129 -50 -129 -96c0 -53 36 -82 102 -82
c85 0 145 51 145 121z" />
    <glyph glyph-name="adieresis" unicode="&#xe4;" horiz-adv-x="510" 
d="M216 595h-96v94h96v-94zM396 595h-96v94h96v-94zM220 -15c-107 0 -174 58 -174 150c0 90 53 136 186 168c102 25 135 47 135 90c0 49 -43 81 -109 81c-70 0 -119 -43 -133 -114l-79 15c18 104 101 170 212 170c119 0 191 -66 191 -172v-373h-73v56h-2
c-32 -44 -90 -71 -154 -71zM226 58c85 0 145 51 145 121v119h-2c-11 -26 -45 -44 -116 -62c-93 -24 -129 -50 -129 -96c0 -53 36 -82 102 -82z" />
    <glyph glyph-name="uni01DF" unicode="&#x1df;" horiz-adv-x="510" 
d="M392 729h-267v63h267v-63zM216 595h-96v94h96v-94zM396 595h-96v94h96v-94zM220 -15c-107 0 -174 58 -174 150c0 90 53 136 186 168c102 25 135 47 135 90c0 49 -43 81 -109 81c-70 0 -119 -43 -133 -114l-79 15c18 104 101 170 212 170c119 0 191 -66 191 -172v-373h-73
v56h-2c-32 -44 -90 -71 -154 -71zM226 58c85 0 145 51 145 121v119h-2c-11 -26 -45 -44 -116 -62c-93 -24 -129 -50 -129 -96c0 -53 36 -82 102 -82z" />
    <glyph glyph-name="uni1EA1" unicode="&#x1ea1;" horiz-adv-x="510" 
d="M220 -15c-107 0 -174 58 -174 150c0 90 53 136 186 168c102 25 135 47 135 90c0 49 -43 81 -109 81c-70 0 -119 -43 -133 -114l-79 15c18 104 101 170 212 170c119 0 191 -66 191 -172v-373h-73v56h-2c-32 -44 -90 -71 -154 -71zM226 58c85 0 145 51 145 121v119h-2
c-11 -26 -45 -44 -116 -62c-93 -24 -129 -50 -129 -96c0 -53 36 -82 102 -82zM308 -159h-96v94h96v-94z" />
    <glyph glyph-name="agrave" unicode="&#xe0;" horiz-adv-x="510" 
d="M308 605h-70l-102 116h98zM220 -15c-107 0 -174 58 -174 150c0 90 53 136 186 168c102 25 135 47 135 90c0 49 -43 81 -109 81c-70 0 -119 -43 -133 -114l-79 15c18 104 101 170 212 170c119 0 191 -66 191 -172v-373h-73v56h-2c-32 -44 -90 -71 -154 -71zM226 58
c85 0 145 51 145 121v119h-2c-11 -26 -45 -44 -116 -62c-93 -24 -129 -50 -129 -96c0 -53 36 -82 102 -82z" />
    <glyph glyph-name="uni1EA3" unicode="&#x1ea3;" horiz-adv-x="510" 
d="M259 696c-18 0 -36 -7 -62 -26l-25 41c34 22 64 32 92 32c51 0 84 -27 84 -63c0 -28 -26 -53 -64 -65v-20h-53v48h1c40 5 60 15 60 31c0 13 -13 22 -33 22zM258 545c119 0 191 -66 191 -172v-373h-73v56h-2c-32 -44 -90 -71 -154 -71c-107 0 -174 58 -174 150
c0 90 53 136 186 168c102 25 135 47 135 90c0 49 -43 81 -109 81c-70 0 -119 -43 -133 -114l-79 15c18 104 101 170 212 170zM371 179v119h-2c-11 -26 -45 -44 -116 -62c-93 -24 -129 -50 -129 -96c0 -53 36 -82 102 -82c85 0 145 51 145 121z" />
    <glyph glyph-name="amacron" unicode="&#x101;" horiz-adv-x="510" 
d="M392 605h-267v63h267v-63zM220 -15c-107 0 -174 58 -174 150c0 90 53 136 186 168c102 25 135 47 135 90c0 49 -43 81 -109 81c-70 0 -119 -43 -133 -114l-79 15c18 104 101 170 212 170c119 0 191 -66 191 -172v-373h-73v56h-2c-32 -44 -90 -71 -154 -71zM226 58
c85 0 145 51 145 121v119h-2c-11 -26 -45 -44 -116 -62c-93 -24 -129 -50 -129 -96c0 -53 36 -82 102 -82z" />
    <glyph glyph-name="aogonek" unicode="&#x105;" horiz-adv-x="510" 
d="M457 -116l24 -63c-28 -13 -59 -21 -94 -21c-57 0 -91 32 -89 85c2 40 33 82 82 115h-4v56h-2c-32 -44 -90 -71 -154 -71c-107 0 -174 58 -174 150c0 90 53 136 186 168c102 25 135 47 135 90c0 49 -43 81 -109 81c-70 0 -119 -43 -133 -114l-79 15
c18 104 101 170 212 170c119 0 191 -66 191 -172v-373h-7c-44 -24 -78 -57 -78 -99c0 -24 12 -35 34 -35c19 0 39 7 59 18zM371 179v119h-2c-11 -26 -45 -44 -116 -62c-93 -24 -129 -50 -129 -96c0 -53 36 -82 102 -82c85 0 145 51 145 121z" />
    <glyph glyph-name="aring" unicode="&#xe5;" horiz-adv-x="510" 
d="M347 530c65 -25 102 -81 102 -157v-373h-73v56h-2c-32 -44 -90 -71 -154 -71c-107 0 -174 58 -174 150c0 90 53 136 186 168c102 25 135 47 135 90c0 49 -43 81 -109 81c-70 0 -119 -43 -133 -114l-79 15c13 74 59 129 124 154c-21 21 -34 49 -34 81c0 66 52 114 122 114
c71 0 122 -48 122 -114c0 -32 -12 -60 -33 -80zM193 610c0 -38 27 -65 65 -65s66 27 66 65c0 39 -28 66 -66 66s-65 -27 -65 -66zM371 179v119h-2c-11 -26 -45 -44 -116 -62c-93 -24 -129 -50 -129 -96c0 -53 36 -82 102 -82c85 0 145 51 145 121z" />
    <glyph glyph-name="aringacute" unicode="&#x1fb;" horiz-adv-x="510" 
d="M347 530c65 -25 102 -81 102 -157v-373h-73v56h-2c-32 -44 -90 -71 -154 -71c-107 0 -174 58 -174 150c0 90 53 136 186 168c102 25 135 47 135 90c0 49 -43 81 -109 81c-70 0 -119 -43 -133 -114l-79 15c13 74 59 129 124 154c-21 21 -34 49 -34 81c0 51 31 91 77 107
l72 113h98l-96 -109c56 -11 93 -54 93 -111c0 -32 -12 -60 -33 -80zM193 610c0 -38 27 -65 65 -65s66 27 66 65c0 39 -28 66 -66 66s-65 -27 -65 -66zM371 179v119h-2c-11 -26 -45 -44 -116 -62c-93 -24 -129 -50 -129 -96c0 -53 36 -82 102 -82c85 0 145 51 145 121z" />
    <glyph glyph-name="atilde" unicode="&#xe3;" horiz-adv-x="510" 
d="M313 600c-52 0 -79 38 -115 38c-20 0 -31 -11 -36 -33h-47c4 57 37 93 87 93c52 0 79 -38 115 -38c20 0 31 11 36 33h47c-4 -57 -37 -93 -87 -93zM220 -15c-107 0 -174 58 -174 150c0 90 53 136 186 168c102 25 135 47 135 90c0 49 -43 81 -109 81
c-70 0 -119 -43 -133 -114l-79 15c18 104 101 170 212 170c119 0 191 -66 191 -172v-373h-73v56h-2c-32 -44 -90 -71 -154 -71zM226 58c85 0 145 51 145 121v119h-2c-11 -26 -45 -44 -116 -62c-93 -24 -129 -50 -129 -96c0 -53 36 -82 102 -82z" />
    <glyph glyph-name="ae" unicode="&#xe6;" horiz-adv-x="888" 
d="M843 282v-39h-394c1 -114 67 -190 161 -190c75 0 115 27 159 108l63 -40c-45 -89 -122 -136 -220 -136c-82 0 -153 37 -195 104c-33 -67 -102 -104 -195 -104c-107 0 -173 58 -173 150c0 214 321 132 321 259c0 49 -42 83 -111 83c-71 0 -125 -42 -139 -115l-74 15
c20 105 102 168 211 168c84 0 146 -32 174 -88c39 55 106 88 181 88c137 0 231 -106 231 -263zM450 304h317c-3 105 -65 173 -155 173c-89 0 -160 -74 -162 -173zM375 178v123h-2c-34 -79 -250 -48 -250 -161c0 -56 35 -87 105 -87c88 0 147 57 147 125z" />
    <glyph glyph-name="aeacute" unicode="&#x1fd;" horiz-adv-x="888" 
d="M472 706h98l-102 -116h-70zM843 282v-39h-394c1 -114 67 -190 161 -190c75 0 115 27 159 108l63 -40c-45 -89 -122 -136 -220 -136c-82 0 -153 37 -195 104c-33 -67 -102 -104 -195 -104c-107 0 -173 58 -173 150c0 214 321 132 321 259c0 49 -42 83 -111 83
c-71 0 -125 -42 -139 -115l-74 15c20 105 102 168 211 168c84 0 146 -32 174 -88c39 55 106 88 181 88c137 0 231 -106 231 -263zM450 304h317c-3 105 -65 173 -155 173c-89 0 -160 -74 -162 -173zM375 178v123h-2c-34 -79 -250 -48 -250 -161c0 -56 35 -87 105 -87
c88 0 147 57 147 125z" />
    <glyph glyph-name="b" unicode="b" horiz-adv-x="586" 
d="M302 -15c-65 0 -124 25 -159 68h-2v-53h-75v730h78v-256h2c34 42 90 71 156 71c139 0 238 -114 238 -280s-99 -280 -238 -280zM297 58c100 0 165 82 165 207s-65 207 -160 207c-89 0 -158 -69 -158 -155v-103c0 -87 69 -156 153 -156z" />
    <glyph glyph-name="uni1E05" unicode="&#x1e05;" horiz-adv-x="586" 
d="M302 -15c-65 0 -124 25 -159 68h-2v-53h-75v730h78v-256h2c34 42 90 71 156 71c139 0 238 -114 238 -280s-99 -280 -238 -280zM297 58c100 0 165 82 165 207s-65 207 -160 207c-89 0 -158 -69 -158 -155v-103c0 -87 69 -156 153 -156zM353 -159h-96v94h96v-94z" />
    <glyph glyph-name="c" unicode="c" horiz-adv-x="563" 
d="M291 -15c-145 0 -245 113 -245 280s100 280 245 280c122 0 211 -75 231 -193l-76 -16c-15 87 -72 136 -155 136c-100 0 -167 -82 -167 -207s67 -207 167 -207c83 0 140 49 155 136l76 -16c-20 -118 -109 -193 -231 -193z" />
    <glyph glyph-name="cacute" unicode="&#x107;" horiz-adv-x="563" 
d="M314 605h-70l74 116h98zM291 -15c-145 0 -245 113 -245 280s100 280 245 280c122 0 211 -75 231 -193l-76 -16c-15 87 -72 136 -155 136c-100 0 -167 -82 -167 -207s67 -207 167 -207c83 0 140 49 155 136l76 -16c-20 -118 -109 -193 -231 -193z" />
    <glyph glyph-name="ccaron" unicode="&#x10d;" horiz-adv-x="563" 
d="M411 680l-66 -85h-108l-66 85l47 37l73 -92l73 92zM291 58c83 0 140 49 155 136l76 -16c-20 -118 -109 -193 -231 -193c-145 0 -245 113 -245 280s100 280 245 280c122 0 211 -75 231 -193l-76 -16c-15 87 -72 136 -155 136c-100 0 -167 -82 -167 -207s67 -207 167 -207z
" />
    <glyph glyph-name="ccedilla" unicode="&#xe7;" horiz-adv-x="563" 
d="M291 58c83 0 140 49 155 136l76 -16c-19 -110 -97 -182 -206 -192l-28 -49c10 4 21 6 34 6c49 0 92 -33 92 -83c0 -55 -45 -91 -103 -91c-37 0 -72 13 -102 40l34 41c21 -20 43 -30 68 -30c29 0 48 17 48 41c0 25 -21 40 -47 40c-22 0 -39 -7 -55 -26l-43 19l50 92
c-130 14 -218 123 -218 279c0 167 100 280 245 280c122 0 211 -75 231 -193l-76 -16c-15 87 -72 136 -155 136c-100 0 -167 -82 -167 -207s67 -207 167 -207z" />
    <glyph glyph-name="ccircumflex" unicode="&#x109;" horiz-adv-x="563" 
d="M364 585l-73 92l-73 -92l-47 37l66 85h107l67 -85zM291 58c83 0 140 49 155 136l76 -16c-20 -118 -109 -193 -231 -193c-145 0 -245 113 -245 280s100 280 245 280c122 0 211 -75 231 -193l-76 -16c-15 87 -72 136 -155 136c-100 0 -167 -82 -167 -207s67 -207 167 -207z
" />
    <glyph glyph-name="cdotaccent" unicode="&#x10b;" horiz-adv-x="563" 
d="M339 605h-96v94h96v-94zM291 -15c-145 0 -245 113 -245 280s100 280 245 280c122 0 211 -75 231 -193l-76 -16c-15 87 -72 136 -155 136c-100 0 -167 -82 -167 -207s67 -207 167 -207c83 0 140 49 155 136l76 -16c-20 -118 -109 -193 -231 -193z" />
    <glyph glyph-name="d" unicode="d" horiz-adv-x="586" 
d="M283 -15c-139 0 -237 114 -237 280s98 280 238 280c66 0 122 -29 156 -71h2v256h78v-730h-75v53h-2c-35 -43 -94 -68 -160 -68zM289 58c84 0 153 69 153 156v103c0 86 -69 155 -158 155c-95 0 -160 -82 -160 -207s65 -207 165 -207z" />
    <glyph glyph-name="eth" unicode="&#xf0;" horiz-adv-x="590" 
d="M536 698l-125 -39c85 -123 134 -258 134 -394c0 -170 -97 -280 -249 -280c-150 0 -250 113 -250 280c0 168 99 280 244 280c53 0 99 -16 133 -44h2c-21 49 -48 93 -80 136l-137 -43l-15 44l122 38c-25 31 -53 62 -86 97v2h89c23 -25 45 -50 65 -77l138 44zM296 58
c104 0 171 81 171 207s-67 207 -171 207c-105 0 -172 -82 -172 -207s67 -207 172 -207z" />
    <glyph glyph-name="dcaron" unicode="&#x10f;" horiz-adv-x="659" 
d="M283 -15c-139 0 -237 114 -237 280s98 280 238 280c66 0 122 -29 156 -71h2v256h78v-730h-75v53h-2c-35 -43 -94 -68 -160 -68zM570 545v37c29 5 41 21 41 52h-45v96h104v-84c0 -62 -34 -97 -100 -101zM289 58c84 0 153 69 153 156v103c0 86 -69 155 -158 155
c-95 0 -160 -82 -160 -207s65 -207 165 -207z" />
    <glyph glyph-name="dcroat" unicode="&#x111;" horiz-adv-x="586" 
d="M520 665h66v-59h-66v-606h-75v53h-2c-35 -43 -94 -68 -160 -68c-139 0 -237 114 -237 280s98 280 238 280c66 0 122 -29 156 -71h2v132h-144v59h144v65h78v-65zM442 214v103c0 86 -69 155 -158 155c-95 0 -160 -82 -160 -207s65 -207 165 -207c84 0 153 69 153 156z" />
    <glyph glyph-name="uni1E0D" unicode="&#x1e0d;" horiz-adv-x="586" 
d="M283 -15c-139 0 -237 114 -237 280s98 280 238 280c66 0 122 -29 156 -71h2v256h78v-730h-75v53h-2c-35 -43 -94 -68 -160 -68zM289 58c84 0 153 69 153 156v103c0 86 -69 155 -158 155c-95 0 -160 -82 -160 -207s65 -207 165 -207zM341 -144h-96v94h96v-94z" />
    <glyph glyph-name="e" unicode="e" horiz-adv-x="573" 
d="M291 -15c-147 0 -245 113 -245 280s99 280 245 280c143 0 237 -106 237 -263v-40h-403c2 -101 66 -186 164 -186c75 0 117 28 162 106l65 -39c-46 -91 -123 -138 -225 -138zM127 305h322c-3 95 -64 169 -158 169c-92 0 -162 -80 -164 -169z" />
    <glyph glyph-name="eacute" unicode="&#xe9;" horiz-adv-x="573" 
d="M314 605h-70l74 116h98zM291 -15c-147 0 -245 113 -245 280s99 280 245 280c143 0 237 -106 237 -263v-40h-403c2 -101 66 -186 164 -186c75 0 117 28 162 106l65 -39c-46 -91 -123 -138 -225 -138zM127 305h322c-3 95 -64 169 -158 169c-92 0 -162 -80 -164 -169z" />
    <glyph glyph-name="ebreve" unicode="&#x115;" horiz-adv-x="573" 
d="M292 595c-76 0 -124 46 -128 121h49c6 -36 35 -56 79 -56c43 0 72 20 78 56h49c-4 -75 -52 -121 -127 -121zM291 -15c-147 0 -245 113 -245 280s99 280 245 280c143 0 237 -106 237 -263v-40h-403c2 -101 66 -186 164 -186c75 0 117 28 162 106l65 -39
c-46 -91 -123 -138 -225 -138zM127 305h322c-3 95 -64 169 -158 169c-92 0 -162 -80 -164 -169z" />
    <glyph glyph-name="ecaron" unicode="&#x11b;" horiz-adv-x="573" 
d="M411 680l-66 -85h-108l-66 85l47 37l73 -92l73 92zM528 282v-40h-403c2 -101 66 -186 164 -186c75 0 117 28 162 106l65 -39c-46 -91 -123 -138 -225 -138c-147 0 -245 113 -245 280s99 280 245 280c143 0 237 -106 237 -263zM127 305h322c-3 95 -64 169 -158 169
c-92 0 -162 -80 -164 -169z" />
    <glyph glyph-name="uni0229" unicode="&#x229;" horiz-adv-x="573" 
d="M528 282v-40h-403c2 -101 66 -186 164 -186c75 0 117 28 162 106l65 -39c-42 -83 -110 -130 -200 -137l-28 -49c10 4 21 6 34 6c49 0 92 -33 92 -83c0 -55 -45 -91 -103 -91c-37 0 -72 13 -102 40l34 41c21 -20 43 -30 68 -30c29 0 48 17 48 41c0 25 -21 40 -47 40
c-22 0 -39 -7 -55 -26l-43 19l50 92c-132 14 -218 123 -218 279c0 167 99 280 245 280c143 0 237 -106 237 -263zM127 305h322c-3 95 -64 169 -158 169c-92 0 -162 -80 -164 -169z" />
    <glyph glyph-name="ecircumflex" unicode="&#xea;" horiz-adv-x="573" 
d="M364 585l-73 92l-73 -92l-47 37l66 85h107l67 -85zM528 282v-40h-403c2 -101 66 -186 164 -186c75 0 117 28 162 106l65 -39c-46 -91 -123 -138 -225 -138c-147 0 -245 113 -245 280s99 280 245 280c143 0 237 -106 237 -263zM127 305h322c-3 95 -64 169 -158 169
c-92 0 -162 -80 -164 -169z" />
    <glyph glyph-name="uni1EBF" unicode="&#x1ebf;" horiz-adv-x="573" 
d="M460 776h89l-93 -104h-62zM364 585l-73 92l-73 -92l-47 37l66 85h107l67 -85zM291 545c143 0 237 -106 237 -263v-40h-403c2 -101 66 -186 164 -186c75 0 117 28 162 106l65 -39c-46 -91 -123 -138 -225 -138c-147 0 -245 113 -245 280s99 280 245 280zM127 305h322
c-3 95 -64 169 -158 169c-92 0 -162 -80 -164 -169z" />
    <glyph glyph-name="uni1EC7" unicode="&#x1ec7;" horiz-adv-x="573" 
d="M364 585l-73 92l-73 -92l-47 37l66 85h107l67 -85zM528 282v-40h-403c2 -101 66 -186 164 -186c75 0 117 28 162 106l65 -39c-46 -91 -123 -138 -225 -138c-147 0 -245 113 -245 280s99 280 245 280c143 0 237 -106 237 -263zM127 305h322c-3 95 -64 169 -158 169
c-92 0 -162 -80 -164 -169zM339 -159h-96v94h96v-94z" />
    <glyph glyph-name="uni1EC1" unicode="&#x1ec1;" horiz-adv-x="573" 
d="M414 776l66 -104h-62l-93 104h89zM364 585l-73 92l-73 -92l-47 37l66 85h107l67 -85zM528 282v-40h-403c2 -101 66 -186 164 -186c75 0 117 28 162 106l65 -39c-46 -91 -123 -138 -225 -138c-147 0 -245 113 -245 280s99 280 245 280c143 0 237 -106 237 -263zM127 305
h322c-3 95 -64 169 -158 169c-92 0 -162 -80 -164 -169z" />
    <glyph glyph-name="uni1EC3" unicode="&#x1ec3;" horiz-adv-x="573" 
d="M424 762c-16 0 -32 -7 -56 -23l-22 37c30 19 58 28 83 28c45 0 76 -24 76 -57c0 -25 -24 -47 -58 -58v-18h-49v43h1c37 4 55 13 55 28c0 12 -12 20 -30 20zM364 585l-73 92l-73 -92l-47 37l66 85h107l67 -85zM528 282v-40h-403c2 -101 66 -186 164 -186
c75 0 117 28 162 106l65 -39c-46 -91 -123 -138 -225 -138c-147 0 -245 113 -245 280s99 280 245 280c143 0 237 -106 237 -263zM127 305h322c-3 95 -64 169 -158 169c-92 0 -162 -80 -164 -169z" />
    <glyph glyph-name="uni1EC5" unicode="&#x1ec5;" horiz-adv-x="573" 
d="M240 765c-16 0 -26 -10 -30 -31h-39c3 54 31 88 73 88c43 0 66 -37 96 -37c17 0 26 11 30 32h40c-4 -54 -32 -88 -73 -88c-44 0 -66 36 -97 36zM364 585l-73 92l-73 -92l-47 37l66 85h107l67 -85zM528 282v-40h-403c2 -101 66 -186 164 -186c75 0 117 28 162 106l65 -39
c-46 -91 -123 -138 -225 -138c-147 0 -245 113 -245 280s99 280 245 280c143 0 237 -106 237 -263zM127 305h322c-3 95 -64 169 -158 169c-92 0 -162 -80 -164 -169z" />
    <glyph glyph-name="edieresis" unicode="&#xeb;" horiz-adv-x="573" 
d="M249 595h-96v94h96v-94zM429 595h-96v94h96v-94zM291 -15c-147 0 -245 113 -245 280s99 280 245 280c143 0 237 -106 237 -263v-40h-403c2 -101 66 -186 164 -186c75 0 117 28 162 106l65 -39c-46 -91 -123 -138 -225 -138zM127 305h322c-3 95 -64 169 -158 169
c-92 0 -162 -80 -164 -169z" />
    <glyph glyph-name="edotaccent" unicode="&#x117;" horiz-adv-x="573" 
d="M339 605h-96v94h96v-94zM291 -15c-147 0 -245 113 -245 280s99 280 245 280c143 0 237 -106 237 -263v-40h-403c2 -101 66 -186 164 -186c75 0 117 28 162 106l65 -39c-46 -91 -123 -138 -225 -138zM127 305h322c-3 95 -64 169 -158 169c-92 0 -162 -80 -164 -169z" />
    <glyph glyph-name="uni1EB9" unicode="&#x1eb9;" horiz-adv-x="573" 
d="M291 -15c-147 0 -245 113 -245 280s99 280 245 280c143 0 237 -106 237 -263v-40h-403c2 -101 66 -186 164 -186c75 0 117 28 162 106l65 -39c-46 -91 -123 -138 -225 -138zM127 305h322c-3 95 -64 169 -158 169c-92 0 -162 -80 -164 -169zM339 -159h-96v94h96v-94z" />
    <glyph glyph-name="egrave" unicode="&#xe8;" horiz-adv-x="573" 
d="M340 605h-70l-102 116h98zM291 -15c-147 0 -245 113 -245 280s99 280 245 280c143 0 237 -106 237 -263v-40h-403c2 -101 66 -186 164 -186c75 0 117 28 162 106l65 -39c-46 -91 -123 -138 -225 -138zM127 305h322c-3 95 -64 169 -158 169c-92 0 -162 -80 -164 -169z" />
    <glyph glyph-name="uni1EBB" unicode="&#x1ebb;" horiz-adv-x="573" 
d="M292 696c-18 0 -36 -7 -62 -26l-25 41c34 22 64 32 92 32c51 0 84 -27 84 -63c0 -28 -26 -53 -64 -65v-20h-53v48h1c40 5 60 15 60 31c0 13 -13 22 -33 22zM528 282v-40h-403c2 -101 66 -186 164 -186c75 0 117 28 162 106l65 -39c-46 -91 -123 -138 -225 -138
c-147 0 -245 113 -245 280s99 280 245 280c143 0 237 -106 237 -263zM127 305h322c-3 95 -64 169 -158 169c-92 0 -162 -80 -164 -169z" />
    <glyph glyph-name="emacron" unicode="&#x113;" horiz-adv-x="573" 
d="M425 605h-267v63h267v-63zM291 -15c-147 0 -245 113 -245 280s99 280 245 280c143 0 237 -106 237 -263v-40h-403c2 -101 66 -186 164 -186c75 0 117 28 162 106l65 -39c-46 -91 -123 -138 -225 -138zM127 305h322c-3 95 -64 169 -158 169c-92 0 -162 -80 -164 -169z" />
    <glyph glyph-name="eogonek" unicode="&#x119;" horiz-adv-x="573" 
d="M528 282v-40h-403c2 -101 66 -186 164 -186c75 0 117 28 162 106l65 -39c-31 -62 -77 -104 -136 -124c-43 -24 -76 -57 -76 -98c0 -24 12 -35 34 -35c19 0 39 7 59 18l24 -63c-28 -13 -59 -21 -94 -21c-57 0 -91 32 -89 85c2 34 24 70 62 100h-9
c-147 0 -245 113 -245 280s99 280 245 280c143 0 237 -106 237 -263zM127 305h322c-3 95 -64 169 -158 169c-92 0 -162 -80 -164 -169z" />
    <glyph glyph-name="uni0258" unicode="&#x258;" horiz-adv-x="573" 
d="M282 -15c-102 0 -179 47 -224 138l64 39c46 -78 87 -106 162 -106c98 0 162 85 164 186h-402v40c0 157 93 263 236 263c146 0 246 -113 246 -280s-99 -280 -246 -280zM125 305h321c-1 89 -72 169 -164 169c-94 0 -155 -74 -157 -169z" />
    <glyph glyph-name="uni1EBD" unicode="&#x1ebd;" horiz-adv-x="573" 
d="M346 600c-52 0 -79 38 -115 38c-20 0 -31 -11 -36 -33h-47c4 57 37 93 87 93c52 0 79 -38 115 -38c20 0 31 11 36 33h47c-4 -57 -37 -93 -87 -93zM291 -15c-147 0 -245 113 -245 280s99 280 245 280c143 0 237 -106 237 -263v-40h-403c2 -101 66 -186 164 -186
c75 0 117 28 162 106l65 -39c-46 -91 -123 -138 -225 -138zM127 305h322c-3 95 -64 169 -158 169c-92 0 -162 -80 -164 -169z" />
    <glyph glyph-name="uni0259" unicode="&#x259;" horiz-adv-x="573" 
d="M282 -15c-143 0 -236 106 -236 263v40h402c-2 101 -66 186 -164 186c-75 0 -116 -28 -162 -106l-64 36c45 91 122 141 224 141c147 0 246 -113 246 -280s-100 -280 -246 -280zM282 56c92 0 163 80 164 169h-321c2 -95 63 -169 157 -169z" />
    <glyph glyph-name="f" unicode="f" horiz-adv-x="338" 
d="M189 0h-78v460h-91v70h91v58c0 68 44 112 119 112h78v-73h-69c-34 0 -50 -16 -50 -50v-47h134v-70h-134v-460z" />
    <glyph glyph-name="g" unicode="g" horiz-adv-x="581" 
d="M305 -240c-102 0 -182 54 -215 145l71 32c32 -75 72 -105 144 -105c86 0 137 60 137 157v67h-2c-31 -46 -87 -71 -157 -71c-140 0 -237 116 -237 280c0 165 97 280 238 280c62 0 120 -26 156 -71h2v56h78v-546c0 -134 -85 -224 -215 -224zM289 58c85 0 153 70 153 156
v103c0 86 -69 155 -158 155c-96 0 -160 -83 -160 -207c0 -125 65 -207 165 -207z" />
    <glyph glyph-name="gbreve" unicode="&#x11f;" horiz-adv-x="581" 
d="M285 595c-76 0 -124 46 -128 121h49c6 -36 35 -56 79 -56c43 0 72 20 78 56h49c-4 -75 -52 -121 -127 -121zM305 -240c-102 0 -182 54 -215 145l71 32c32 -75 72 -105 144 -105c86 0 137 60 137 157v67h-2c-31 -46 -87 -71 -157 -71c-140 0 -237 116 -237 280
c0 165 97 280 238 280c62 0 120 -26 156 -71h2v56h78v-546c0 -134 -85 -224 -215 -224zM289 58c85 0 153 70 153 156v103c0 86 -69 155 -158 155c-96 0 -160 -83 -160 -207c0 -125 65 -207 165 -207z" />
    <glyph glyph-name="gcircumflex" unicode="&#x11d;" horiz-adv-x="581" 
d="M357 585l-73 92l-73 -92l-47 37l66 85h107l67 -85zM442 474v56h78v-546c0 -134 -85 -224 -215 -224c-102 0 -182 54 -215 145l71 32c32 -75 72 -105 144 -105c86 0 137 60 137 157v67h-2c-31 -46 -87 -71 -157 -71c-140 0 -237 116 -237 280c0 165 97 280 238 280
c62 0 120 -26 156 -71h2zM442 214v103c0 86 -69 155 -158 155c-96 0 -160 -83 -160 -207c0 -125 65 -207 165 -207c85 0 153 70 153 156z" />
    <glyph glyph-name="uni0123" unicode="&#x123;" horiz-adv-x="581" 
d="M335 790v-37c-30 -5 -43 -21 -43 -52h47v-96h-110v84c0 62 37 97 106 101zM305 -240c-102 0 -182 54 -215 145l71 32c32 -75 72 -105 144 -105c86 0 137 60 137 157v67h-2c-31 -46 -87 -71 -157 -71c-140 0 -237 116 -237 280c0 165 97 280 238 280c62 0 120 -26 156 -71
h2v56h78v-546c0 -134 -85 -224 -215 -224zM289 58c85 0 153 70 153 156v103c0 86 -69 155 -158 155c-96 0 -160 -83 -160 -207c0 -125 65 -207 165 -207z" />
    <glyph glyph-name="gdotaccent" unicode="&#x121;" horiz-adv-x="581" 
d="M332 605h-96v94h96v-94zM305 -240c-102 0 -182 54 -215 145l71 32c32 -75 72 -105 144 -105c86 0 137 60 137 157v67h-2c-31 -46 -87 -71 -157 -71c-140 0 -237 116 -237 280c0 165 97 280 238 280c62 0 120 -26 156 -71h2v56h78v-546c0 -134 -85 -224 -215 -224zM289 58
c85 0 153 70 153 156v103c0 86 -69 155 -158 155c-96 0 -160 -83 -160 -207c0 -125 65 -207 165 -207z" />
    <glyph glyph-name="h" unicode="h" horiz-adv-x="555" 
d="M144 0h-78v730h78v-249h2c30 38 90 64 147 64c122 0 201 -79 201 -202v-343h-78v333c0 86 -50 139 -132 139c-84 0 -140 -57 -140 -139v-333z" />
    <glyph glyph-name="hbar" unicode="&#x127;" horiz-adv-x="555" 
d="M293 545c122 0 201 -79 201 -202v-343h-78v333c0 86 -50 139 -132 139c-84 0 -140 -57 -140 -139v-333h-78v606h-61v59h61v65h78v-65h149v-59h-149v-125h2c30 38 90 64 147 64z" />
    <glyph glyph-name="hcircumflex" unicode="&#x125;" horiz-adv-x="555" 
d="M361 740l-73 92l-73 -92l-47 37l66 85h107l67 -85zM293 545c122 0 201 -79 201 -202v-343h-78v333c0 86 -50 139 -132 139c-84 0 -140 -57 -140 -139v-333h-78v730h78v-249h2c30 38 90 64 147 64z" />
    <glyph glyph-name="uni1E25" unicode="&#x1e25;" horiz-adv-x="555" 
d="M144 0h-78v730h78v-249h2c30 38 90 64 147 64c122 0 201 -79 201 -202v-343h-78v333c0 86 -50 139 -132 139c-84 0 -140 -57 -140 -139v-333zM328 -144h-96v94h96v-94z" />
    <glyph glyph-name="i" unicode="i" horiz-adv-x="209" 
d="M149 623h-90v87h90v-87zM144 0h-78v530h78v-530z" />
    <glyph glyph-name="dotlessi" unicode="&#x131;" horiz-adv-x="209" 
d="M144 0h-78v530h78v-530z" />
    <glyph glyph-name="iacute" unicode="&#xed;" horiz-adv-x="209" 
d="M127 590h-70l74 116h98zM144 0h-78v530h78v-530z" />
    <glyph glyph-name="ibreve" unicode="&#x12d;" horiz-adv-x="209" 
d="M106 580c-76 0 -124 46 -128 121h49c6 -36 35 -56 79 -56c43 0 72 20 78 56h49c-4 -75 -52 -121 -127 -121zM144 0h-78v530h78v-530z" />
    <glyph glyph-name="uni01D0" unicode="&#x1d0;" horiz-adv-x="209" 
d="M105 610l73 92l47 -37l-66 -85h-108l-66 85l47 37zM144 0h-78v530h78v-530z" />
    <glyph glyph-name="icircumflex" unicode="&#xee;" horiz-adv-x="209" 
d="M51 692h107l67 -85l-47 -37l-73 92l-73 -92l-47 37zM144 0h-78v530h78v-530z" />
    <glyph glyph-name="idieresis" unicode="&#xef;" horiz-adv-x="199" 
d="M67 580h-96v94h96v-94zM229 580h-96v94h96v-94zM144 0h-78v530h78v-530z" />
    <glyph glyph-name="i.loclTRK" horiz-adv-x="209" 
d="M149 623h-90v87h90v-87zM144 0h-78v530h78v-530z" />
    <glyph glyph-name="uni1ECB" unicode="&#x1ecb;" horiz-adv-x="209" 
d="M149 623h-90v87h90v-87zM144 0h-78v530h78v-530zM147 -144h-96v94h96v-94z" />
    <glyph glyph-name="igrave" unicode="&#xec;" horiz-adv-x="209" 
d="M154 590h-70l-102 116h98zM144 0h-78v530h78v-530z" />
    <glyph glyph-name="uni1EC9" unicode="&#x1ec9;" horiz-adv-x="209" 
d="M111 728c51 0 84 -27 84 -63c0 -28 -26 -53 -64 -65v-20h-53v48h1c40 5 60 15 60 31c0 13 -13 22 -33 22c-18 0 -36 -7 -62 -26l-25 41c34 22 64 32 92 32zM144 0h-78v530h78v-530z" />
    <glyph glyph-name="imacron" unicode="&#x12b;" horiz-adv-x="209" 
d="M238 590h-267v63h267v-63zM144 0h-78v530h78v-530z" />
    <glyph glyph-name="iogonek" unicode="&#x12f;" horiz-adv-x="209" 
d="M59 710h90v-87h-90v87zM151 -116l24 -63c-28 -13 -59 -21 -94 -21c-57 0 -91 32 -89 85c2 40 33 82 82 115h-8v530h78v-530h-8c-44 -24 -78 -57 -78 -99c0 -24 12 -35 34 -35c19 0 39 7 59 18z" />
    <glyph glyph-name="itilde" unicode="&#x129;" horiz-adv-x="209" 
d="M160 585c-52 0 -79 38 -115 38c-20 0 -31 -11 -36 -33h-47c4 57 37 93 87 93c52 0 79 -38 115 -38c20 0 31 11 36 33h47c-4 -57 -37 -93 -87 -93zM144 0h-78v530h78v-530z" />
    <glyph glyph-name="j" unicode="j" horiz-adv-x="220" 
d="M160 623h-90v87h90v-87zM37 -174h-47v73h43c29 0 44 13 44 39v592h78v-596c0 -77 -37 -108 -118 -108z" />
    <glyph glyph-name="uni0237" unicode="&#x237;" horiz-adv-x="220" 
d="M37 -174h-47v73h43c29 0 44 13 44 39v592h78v-596c0 -77 -37 -108 -118 -108z" />
    <glyph glyph-name="jcircumflex" unicode="&#x135;" horiz-adv-x="220" 
d="M62 692h107l67 -85l-47 -37l-73 92l-73 -92l-47 37zM77 -62v592h78v-596c0 -77 -37 -108 -118 -108h-47v73h43c29 0 44 13 44 39z" />
    <glyph glyph-name="k" unicode="k" horiz-adv-x="511" 
d="M144 0h-78v730h78v-442h2l231 242h100l-197 -205l210 -325h-92l-173 271h-2l-79 -85v-186z" />
    <glyph glyph-name="uni0137" unicode="&#x137;" horiz-adv-x="511" 
d="M144 0h-78v730h78v-442h2l231 242h100l-197 -205l210 -325h-92l-173 271h-2l-79 -85v-186zM222 -235v37c28 5 40 21 40 52h-45v96h104v-84c0 -62 -34 -97 -99 -101z" />
    <glyph glyph-name="kgreenlandic" unicode="&#x138;" horiz-adv-x="511" 
d="M144 0h-78v530h78v-242h2l231 242h100l-197 -205l210 -325h-92l-173 271h-2l-79 -85v-186z" />
    <glyph glyph-name="l" unicode="l" horiz-adv-x="209" 
d="M144 0h-78v730h78v-730z" />
    <glyph glyph-name="lacute" unicode="&#x13a;" horiz-adv-x="209" 
d="M127 790h-70l74 116h98zM144 0h-78v730h78v-730z" />
    <glyph glyph-name="lcaron" unicode="&#x13e;" horiz-adv-x="281" 
d="M144 0h-78v730h78v-730zM193 545v37c29 5 40 21 40 52h-44v96h104v-84c0 -62 -34 -97 -100 -101z" />
    <glyph glyph-name="uni013C" unicode="&#x13c;" horiz-adv-x="209" 
d="M144 0h-78v730h78v-730zM57 -235v37c28 5 40 21 40 52h-45v96h104v-84c0 -62 -34 -97 -99 -101z" />
    <glyph glyph-name="ldot" unicode="&#x140;" horiz-adv-x="307" 
d="M144 0h-78v730h78v-730zM307 321h-119v117h119v-117z" />
    <glyph glyph-name="uni1E37" unicode="&#x1e37;" horiz-adv-x="209" 
d="M144 0h-78v730h78v-730zM152 -144h-96v94h96v-94z" />
    <glyph glyph-name="lslash" unicode="&#x142;" horiz-adv-x="295" 
d="M278 531l32 -35l-123 -114v-382h-78v324l-91 -84l-33 34l124 114v342h78v-284z" />
    <glyph glyph-name="m" unicode="m" horiz-adv-x="809" 
d="M144 0h-78v530h77v-41h2c28 35 79 56 129 56c60 0 112 -28 139 -68h2c36 43 88 68 148 68c101 0 185 -67 185 -176v-369h-78v359c0 68 -46 113 -112 113c-69 0 -114 -49 -114 -120v-352h-75v359c0 68 -47 113 -112 113c-69 0 -113 -49 -113 -121v-351z" />
    <glyph glyph-name="n" unicode="n" horiz-adv-x="555" 
d="M144 0h-78v530h76v-49h2c32 38 92 64 149 64c123 0 201 -79 201 -202v-343h-78v333c0 86 -50 139 -132 139c-84 0 -140 -57 -140 -139v-333z" />
    <glyph glyph-name="nacute" unicode="&#x144;" horiz-adv-x="555" 
d="M315 605h-70l74 116h98zM144 0h-78v530h76v-49h2c32 38 92 64 149 64c123 0 201 -79 201 -202v-343h-78v333c0 86 -50 139 -132 139c-84 0 -140 -57 -140 -139v-333z" />
    <glyph glyph-name="ncaron" unicode="&#x148;" horiz-adv-x="555" 
d="M413 680l-66 -85h-108l-66 85l47 37l73 -92l73 92zM293 545c123 0 201 -79 201 -202v-343h-78v333c0 86 -50 139 -132 139c-84 0 -140 -57 -140 -139v-333h-78v530h76v-49h2c32 38 92 64 149 64z" />
    <glyph glyph-name="uni0146" unicode="&#x146;" horiz-adv-x="555" 
d="M144 0h-78v530h76v-49h2c32 38 92 64 149 64c123 0 201 -79 201 -202v-343h-78v333c0 86 -50 139 -132 139c-84 0 -140 -57 -140 -139v-333zM233 -235v37c28 5 40 21 40 52h-45v96h104v-84c0 -62 -34 -97 -99 -101z" />
    <glyph glyph-name="uni1E45" unicode="&#x1e45;" horiz-adv-x="555" 
d="M340 605h-96v94h96v-94zM144 0h-78v530h76v-49h2c32 38 92 64 149 64c123 0 201 -79 201 -202v-343h-78v333c0 86 -50 139 -132 139c-84 0 -140 -57 -140 -139v-333z" />
    <glyph glyph-name="uni1E47" unicode="&#x1e47;" horiz-adv-x="555" 
d="M144 0h-78v530h76v-49h2c32 38 92 64 149 64c123 0 201 -79 201 -202v-343h-78v333c0 86 -50 139 -132 139c-84 0 -140 -57 -140 -139v-333zM328 -144h-96v94h96v-94z" />
    <glyph glyph-name="eng" unicode="&#x14b;" horiz-adv-x="555" 
d="M293 545c123 0 201 -79 201 -202v-411c0 -75 -36 -106 -121 -106h-43v73h43c29 0 43 13 43 39v395c0 86 -50 139 -132 139c-84 0 -140 -57 -140 -139v-333h-78v530h76v-49h2c32 38 92 64 149 64z" />
    <glyph glyph-name="ntilde" unicode="&#xf1;" horiz-adv-x="555" 
d="M348 600c-52 0 -79 38 -115 38c-20 0 -31 -11 -36 -33h-47c4 57 37 93 87 93c52 0 79 -38 115 -38c20 0 31 11 36 33h47c-4 -57 -37 -93 -87 -93zM144 0h-78v530h76v-49h2c32 38 92 64 149 64c123 0 201 -79 201 -202v-343h-78v333c0 86 -50 139 -132 139
c-84 0 -140 -57 -140 -139v-333z" />
    <glyph glyph-name="o" unicode="o" horiz-adv-x="590" 
d="M295 -15c-150 0 -249 113 -249 280s99 280 249 280s250 -113 250 -280s-100 -280 -250 -280zM295 58c105 0 172 81 172 207s-67 207 -172 207s-171 -81 -171 -207s66 -207 171 -207z" />
    <glyph glyph-name="oacute" unicode="&#xf3;" horiz-adv-x="590" 
d="M318 605h-70l74 116h98zM295 -15c-150 0 -249 113 -249 280s99 280 249 280s250 -113 250 -280s-100 -280 -250 -280zM295 58c105 0 172 81 172 207s-67 207 -172 207s-171 -81 -171 -207s66 -207 171 -207z" />
    <glyph glyph-name="obreve" unicode="&#x14f;" horiz-adv-x="590" 
d="M296 595c-76 0 -124 46 -128 121h49c6 -36 35 -56 79 -56c43 0 72 20 78 56h49c-4 -75 -52 -121 -127 -121zM295 -15c-150 0 -249 113 -249 280s99 280 249 280s250 -113 250 -280s-100 -280 -250 -280zM295 58c105 0 172 81 172 207s-67 207 -172 207
s-171 -81 -171 -207s66 -207 171 -207z" />
    <glyph glyph-name="uni01D2" unicode="&#x1d2;" horiz-adv-x="590" 
d="M415 680l-66 -85h-108l-66 85l47 37l73 -92l73 92zM295 545c150 0 250 -113 250 -280s-100 -280 -250 -280s-249 113 -249 280s99 280 249 280zM295 58c105 0 172 81 172 207s-67 207 -172 207s-171 -81 -171 -207s66 -207 171 -207z" />
    <glyph glyph-name="ocircumflex" unicode="&#xf4;" horiz-adv-x="590" 
d="M368 585l-73 92l-73 -92l-47 37l66 85h107l67 -85zM295 545c150 0 250 -113 250 -280s-100 -280 -250 -280s-249 113 -249 280s99 280 249 280zM295 58c105 0 172 81 172 207s-67 207 -172 207s-171 -81 -171 -207s66 -207 171 -207z" />
    <glyph glyph-name="uni1ED1" unicode="&#x1ed1;" horiz-adv-x="590" 
d="M464 776h89l-93 -104h-62zM368 585l-73 92l-73 -92l-47 37l66 85h107l67 -85zM295 545c150 0 250 -113 250 -280s-100 -280 -250 -280s-249 113 -249 280s99 280 249 280zM295 58c105 0 172 81 172 207s-67 207 -172 207s-171 -81 -171 -207s66 -207 171 -207z" />
    <glyph glyph-name="uni1ED9" unicode="&#x1ed9;" horiz-adv-x="590" 
d="M368 585l-73 92l-73 -92l-47 37l66 85h107l67 -85zM295 545c150 0 250 -113 250 -280s-100 -280 -250 -280s-249 113 -249 280s99 280 249 280zM295 58c105 0 172 81 172 207s-67 207 -172 207s-171 -81 -171 -207s66 -207 171 -207zM343 -159h-96v94h96v-94z" />
    <glyph glyph-name="uni1ED3" unicode="&#x1ed3;" horiz-adv-x="590" 
d="M418 776l66 -104h-62l-93 104h89zM368 585l-73 92l-73 -92l-47 37l66 85h107l67 -85zM295 545c150 0 250 -113 250 -280s-100 -280 -250 -280s-249 113 -249 280s99 280 249 280zM295 58c105 0 172 81 172 207s-67 207 -172 207s-171 -81 -171 -207s66 -207 171 -207z
" />
    <glyph glyph-name="uni1ED5" unicode="&#x1ed5;" horiz-adv-x="590" 
d="M428 762c-16 0 -32 -7 -56 -23l-22 37c30 19 58 28 83 28c45 0 76 -24 76 -57c0 -25 -24 -47 -58 -58v-18h-49v43h1c37 4 55 13 55 28c0 12 -12 20 -30 20zM368 585l-73 92l-73 -92l-47 37l66 85h107l67 -85zM295 545c150 0 250 -113 250 -280s-100 -280 -250 -280
s-249 113 -249 280s99 280 249 280zM295 58c105 0 172 81 172 207s-67 207 -172 207s-171 -81 -171 -207s66 -207 171 -207z" />
    <glyph glyph-name="uni1ED7" unicode="&#x1ed7;" horiz-adv-x="590" 
d="M244 765c-16 0 -26 -10 -30 -31h-39c3 54 31 88 73 88c43 0 66 -37 96 -37c17 0 26 11 30 32h40c-4 -54 -32 -88 -73 -88c-44 0 -66 36 -97 36zM368 585l-73 92l-73 -92l-47 37l66 85h107l67 -85zM295 545c150 0 250 -113 250 -280s-100 -280 -250 -280
s-249 113 -249 280s99 280 249 280zM295 58c105 0 172 81 172 207s-67 207 -172 207s-171 -81 -171 -207s66 -207 171 -207z" />
    <glyph glyph-name="odieresis" unicode="&#xf6;" horiz-adv-x="590" 
d="M253 595h-96v94h96v-94zM433 595h-96v94h96v-94zM295 -15c-150 0 -249 113 -249 280s99 280 249 280s250 -113 250 -280s-100 -280 -250 -280zM295 58c105 0 172 81 172 207s-67 207 -172 207s-171 -81 -171 -207s66 -207 171 -207z" />
    <glyph glyph-name="uni1ECD" unicode="&#x1ecd;" horiz-adv-x="590" 
d="M295 -15c-150 0 -249 113 -249 280s99 280 249 280s250 -113 250 -280s-100 -280 -250 -280zM295 58c105 0 172 81 172 207s-67 207 -172 207s-171 -81 -171 -207s66 -207 171 -207zM343 -159h-96v94h96v-94z" />
    <glyph glyph-name="ograve" unicode="&#xf2;" horiz-adv-x="590" 
d="M345 605h-70l-102 116h98zM295 -15c-150 0 -249 113 -249 280s99 280 249 280s250 -113 250 -280s-100 -280 -250 -280zM295 58c105 0 172 81 172 207s-67 207 -172 207s-171 -81 -171 -207s66 -207 171 -207z" />
    <glyph glyph-name="uni1ECF" unicode="&#x1ecf;" horiz-adv-x="590" 
d="M296 696c-18 0 -36 -7 -62 -26l-25 41c34 22 64 32 92 32c51 0 84 -27 84 -63c0 -28 -26 -53 -64 -65v-20h-53v48h1c40 5 60 15 60 31c0 13 -13 22 -33 22zM295 545c150 0 250 -113 250 -280s-100 -280 -250 -280s-249 113 -249 280s99 280 249 280zM295 58
c105 0 172 81 172 207s-67 207 -172 207s-171 -81 -171 -207s66 -207 171 -207z" />
    <glyph glyph-name="ohorn" unicode="&#x1a1;" horiz-adv-x="590" 
d="M460 485c54 -49 85 -126 85 -220c0 -167 -100 -280 -250 -280s-249 113 -249 280c0 168 99 280 249 280c59 0 87 -15 124 -15s46 17 46 88h59c0 -82 -18 -122 -64 -133zM295 58c105 0 172 81 172 207s-67 207 -172 207s-171 -81 -171 -207s66 -207 171 -207z" />
    <glyph glyph-name="uni1EDB" unicode="&#x1edb;" horiz-adv-x="590" 
d="M322 721h98l-102 -116h-70zM460 485c54 -49 85 -126 85 -220c0 -167 -100 -280 -250 -280s-249 113 -249 280c0 168 99 280 249 280c59 0 87 -15 124 -15s46 17 46 88h59c0 -82 -18 -122 -64 -133zM295 58c105 0 172 81 172 207s-67 207 -172 207s-171 -81 -171 -207
s66 -207 171 -207z" />
    <glyph glyph-name="uni1EE3" unicode="&#x1ee3;" horiz-adv-x="590" 
d="M460 485c54 -49 85 -126 85 -220c0 -167 -100 -280 -250 -280s-249 113 -249 280c0 168 99 280 249 280c59 0 87 -15 124 -15s46 17 46 88h59c0 -82 -18 -122 -64 -133zM295 58c105 0 172 81 172 207s-67 207 -172 207s-171 -81 -171 -207s66 -207 171 -207zM343 -159
h-96v94h96v-94z" />
    <glyph glyph-name="uni1EDD" unicode="&#x1edd;" horiz-adv-x="590" 
d="M271 721l74 -116h-70l-102 116h98zM460 485c54 -49 85 -126 85 -220c0 -167 -100 -280 -250 -280s-249 113 -249 280c0 168 99 280 249 280c59 0 87 -15 124 -15s46 17 46 88h59c0 -82 -18 -122 -64 -133zM295 58c105 0 172 81 172 207s-67 207 -172 207
s-171 -81 -171 -207s66 -207 171 -207z" />
    <glyph glyph-name="uni1EDF" unicode="&#x1edf;" horiz-adv-x="590" 
d="M296 696c-18 0 -36 -7 -62 -26l-25 41c34 22 64 32 92 32c51 0 84 -27 84 -63c0 -28 -26 -53 -64 -65v-20h-53v48h1c40 5 60 15 60 31c0 13 -13 22 -33 22zM460 485c54 -49 85 -126 85 -220c0 -167 -100 -280 -250 -280s-249 113 -249 280c0 168 99 280 249 280
c59 0 87 -15 124 -15s46 17 46 88h59c0 -82 -18 -122 -64 -133zM295 58c105 0 172 81 172 207s-67 207 -172 207s-171 -81 -171 -207s66 -207 171 -207z" />
    <glyph glyph-name="uni1EE1" unicode="&#x1ee1;" horiz-adv-x="590" 
d="M235 638c-20 0 -31 -11 -36 -33h-47c4 57 37 93 87 93c52 0 79 -38 115 -38c20 0 31 11 36 33h47c-4 -57 -37 -93 -87 -93c-52 0 -79 38 -115 38zM460 485c54 -49 85 -126 85 -220c0 -167 -100 -280 -250 -280s-249 113 -249 280c0 168 99 280 249 280
c59 0 87 -15 124 -15s46 17 46 88h59c0 -82 -18 -122 -64 -133zM295 58c105 0 172 81 172 207s-67 207 -172 207s-171 -81 -171 -207s66 -207 171 -207z" />
    <glyph glyph-name="ohungarumlaut" unicode="&#x151;" horiz-adv-x="590" 
d="M232 605h-70l74 116h98zM386 605h-70l74 116h98zM295 -15c-150 0 -249 113 -249 280s99 280 249 280s250 -113 250 -280s-100 -280 -250 -280zM295 58c105 0 172 81 172 207s-67 207 -172 207s-171 -81 -171 -207s66 -207 171 -207z" />
    <glyph glyph-name="omacron" unicode="&#x14d;" horiz-adv-x="590" 
d="M429 605h-267v63h267v-63zM295 -15c-150 0 -249 113 -249 280s99 280 249 280s250 -113 250 -280s-100 -280 -250 -280zM295 58c105 0 172 81 172 207s-67 207 -172 207s-171 -81 -171 -207s66 -207 171 -207z" />
    <glyph glyph-name="oslash" unicode="&#xf8;" horiz-adv-x="591" 
d="M520 513l-39 -50c41 -49 64 -117 64 -198c0 -167 -99 -280 -249 -280c-59 0 -111 18 -152 50l-36 -46l-35 26l40 50c-43 49 -67 118 -67 200c0 167 101 280 250 280c60 0 112 -18 153 -51l36 46zM121 265c0 -56 14 -104 38 -140l245 312c-28 25 -65 39 -108 39
c-106 0 -175 -84 -175 -211zM296 54c107 0 174 84 174 211c0 56 -13 103 -36 138l-245 -311c28 -25 65 -38 107 -38z" />
    <glyph glyph-name="oslashacute" unicode="&#x1ff;" horiz-adv-x="591" 
d="M323 721h98l-102 -116h-70zM520 513l-39 -50c41 -49 64 -117 64 -198c0 -167 -99 -280 -249 -280c-59 0 -111 18 -152 50l-36 -46l-35 26l40 50c-43 49 -67 118 -67 200c0 167 101 280 250 280c60 0 112 -18 153 -51l36 46zM121 265c0 -56 14 -104 38 -140l245 312
c-28 25 -65 39 -108 39c-106 0 -175 -84 -175 -211zM296 54c107 0 174 84 174 211c0 56 -13 103 -36 138l-245 -311c28 -25 65 -38 107 -38z" />
    <glyph glyph-name="otilde" unicode="&#xf5;" horiz-adv-x="590" 
d="M350 600c-52 0 -79 38 -115 38c-20 0 -31 -11 -36 -33h-47c4 57 37 93 87 93c52 0 79 -38 115 -38c20 0 31 11 36 33h47c-4 -57 -37 -93 -87 -93zM295 -15c-150 0 -249 113 -249 280s99 280 249 280s250 -113 250 -280s-100 -280 -250 -280zM295 58c105 0 172 81 172 207
s-67 207 -172 207s-171 -81 -171 -207s66 -207 171 -207z" />
    <glyph glyph-name="uni1E4D" unicode="&#x1e4d;" horiz-adv-x="590" 
d="M318 728h-70l74 116h98zM350 600c-52 0 -79 38 -115 38c-20 0 -31 -11 -36 -33h-47c4 57 37 93 87 93c52 0 79 -38 115 -38c20 0 31 11 36 33h47c-4 -57 -37 -93 -87 -93zM295 -15c-150 0 -249 113 -249 280s99 280 249 280s250 -113 250 -280s-100 -280 -250 -280z
M295 58c105 0 172 81 172 207s-67 207 -172 207s-171 -81 -171 -207s66 -207 171 -207z" />
    <glyph glyph-name="oe" unicode="&#x153;" horiz-adv-x="995" 
d="M949 282v-40h-402c2 -102 65 -187 163 -187c76 0 118 28 164 107l63 -39c-46 -91 -123 -138 -225 -138c-94 0 -166 46 -206 122c-41 -76 -115 -122 -210 -122c-150 0 -250 113 -250 280s100 280 250 280c95 0 169 -46 210 -122c41 76 113 122 206 122
c143 0 237 -106 237 -263zM296 55c104 0 172 83 172 210s-68 210 -172 210c-106 0 -173 -84 -173 -210s67 -210 173 -210zM549 305h322c-3 96 -64 170 -159 170c-92 0 -162 -81 -163 -170z" />
    <glyph glyph-name="p" unicode="p" horiz-adv-x="586" 
d="M144 -225h-78v755h78v-56h2c34 42 90 71 155 71c140 0 239 -114 239 -280s-99 -280 -237 -280c-66 0 -124 28 -157 68h-2v-278zM297 58c100 0 165 82 165 207s-65 207 -161 207c-88 0 -157 -69 -157 -155v-103c0 -87 69 -156 153 -156z" />
    <glyph glyph-name="thorn" unicode="&#xfe;" horiz-adv-x="586" 
d="M301 545c140 0 239 -114 239 -280s-99 -280 -237 -280c-66 0 -124 28 -157 68h-2v-278h-78v955h78v-256h2c34 42 90 71 155 71zM297 58c100 0 165 82 165 207s-65 207 -161 207c-88 0 -157 -69 -157 -155v-103c0 -87 69 -156 153 -156z" />
    <glyph glyph-name="q" unicode="q" horiz-adv-x="586" 
d="M520 530v-755h-78v278h-2c-33 -40 -91 -68 -157 -68c-139 0 -237 114 -237 280s98 280 238 280c66 0 122 -29 156 -71h2v56h78zM289 58c84 0 153 69 153 156v103c0 86 -69 155 -158 155c-95 0 -160 -82 -160 -207s65 -207 165 -207z" />
    <glyph glyph-name="r" unicode="r" horiz-adv-x="325" 
d="M144 0h-78v530h74v-44h2c20 33 59 53 110 53c19 0 35 -3 53 -8l-17 -81c-19 6 -34 9 -52 9c-61 0 -92 -41 -92 -141v-318z" />
    <glyph glyph-name="racute" unicode="&#x155;" horiz-adv-x="325" 
d="M180 590h-70l74 116h98zM144 0h-78v530h74v-44h2c20 33 59 53 110 53c19 0 35 -3 53 -8l-17 -81c-19 6 -34 9 -52 9c-61 0 -92 -41 -92 -141v-318z" />
    <glyph glyph-name="rcaron" unicode="&#x159;" horiz-adv-x="325" 
d="M277 665l-66 -85h-108l-66 85l47 37l73 -92l73 92zM252 539c19 0 35 -3 53 -8l-17 -81c-19 6 -34 9 -52 9c-61 0 -92 -41 -92 -141v-318h-78v530h74v-44h2c20 33 59 53 110 53z" />
    <glyph glyph-name="uni0157" unicode="&#x157;" horiz-adv-x="325" 
d="M144 0h-78v530h74v-44h2c20 33 59 53 110 53c19 0 35 -3 53 -8l-17 -81c-19 6 -34 9 -52 9c-61 0 -92 -41 -92 -141v-318zM57 -235v37c28 5 40 21 40 52h-45v96h104v-84c0 -62 -34 -97 -99 -101z" />
    <glyph glyph-name="s" unicode="s" horiz-adv-x="502" 
d="M271 -15c-137 0 -223 71 -235 196l76 14c16 -97 62 -137 159 -137c72 0 117 36 117 84c0 42 -32 65 -146 99c-133 40 -181 78 -181 152c0 84 77 152 180 152c111 0 190 -61 210 -158l-76 -17c-18 67 -62 102 -134 102c-59 0 -102 -35 -102 -76c0 -37 32 -56 129 -86
c148 -46 199 -88 199 -168c0 -91 -78 -157 -196 -157z" />
    <glyph glyph-name="sacute" unicode="&#x15b;" horiz-adv-x="502" 
d="M269 605h-70l74 116h98zM271 -15c-137 0 -223 71 -235 196l76 14c16 -97 62 -137 159 -137c72 0 117 36 117 84c0 42 -32 65 -146 99c-133 40 -181 78 -181 152c0 84 77 152 180 152c111 0 190 -61 210 -158l-76 -17c-18 67 -62 102 -134 102c-59 0 -102 -35 -102 -76
c0 -37 32 -56 129 -86c148 -46 199 -88 199 -168c0 -91 -78 -157 -196 -157z" />
    <glyph glyph-name="scaron" unicode="&#x161;" horiz-adv-x="502" 
d="M367 680l-66 -85h-108l-66 85l47 37l73 -92l73 92zM268 310c148 -46 199 -88 199 -168c0 -91 -78 -157 -196 -157c-137 0 -223 71 -235 196l76 14c16 -97 62 -137 159 -137c72 0 117 36 117 84c0 42 -32 65 -146 99c-133 40 -181 78 -181 152c0 84 77 152 180 152
c111 0 190 -61 210 -158l-76 -17c-18 67 -62 102 -134 102c-59 0 -102 -35 -102 -76c0 -37 32 -56 129 -86z" />
    <glyph glyph-name="scedilla" unicode="&#x15f;" horiz-adv-x="502" 
d="M467 142c0 -85 -67 -148 -172 -156l-28 -49c10 4 21 6 34 6c49 0 92 -33 92 -83c0 -55 -45 -91 -103 -91c-37 0 -72 13 -102 40l34 41c21 -20 43 -30 68 -30c29 0 48 17 48 41c0 25 -21 40 -47 40c-22 0 -39 -7 -55 -26l-43 19l50 92c-121 9 -196 79 -207 195l76 14
c16 -97 62 -137 159 -137c72 0 117 36 117 84c0 42 -32 65 -146 99c-133 40 -181 78 -181 152c0 84 77 152 180 152c111 0 190 -61 210 -158l-76 -17c-18 67 -62 102 -134 102c-59 0 -102 -35 -102 -76c0 -37 32 -56 129 -86c148 -46 199 -88 199 -168z" />
    <glyph glyph-name="scircumflex" unicode="&#x15d;" horiz-adv-x="502" 
d="M320 585l-73 92l-73 -92l-47 37l66 85h107l67 -85zM268 310c148 -46 199 -88 199 -168c0 -91 -78 -157 -196 -157c-137 0 -223 71 -235 196l76 14c16 -97 62 -137 159 -137c72 0 117 36 117 84c0 42 -32 65 -146 99c-133 40 -181 78 -181 152c0 84 77 152 180 152
c111 0 190 -61 210 -158l-76 -17c-18 67 -62 102 -134 102c-59 0 -102 -35 -102 -76c0 -37 32 -56 129 -86z" />
    <glyph glyph-name="uni0219" unicode="&#x219;" horiz-adv-x="502" 
d="M271 -15c-137 0 -223 71 -235 196l76 14c16 -97 62 -137 159 -137c72 0 117 36 117 84c0 42 -32 65 -146 99c-133 40 -181 78 -181 152c0 84 77 152 180 152c111 0 190 -61 210 -158l-76 -17c-18 67 -62 102 -134 102c-59 0 -102 -35 -102 -76c0 -37 32 -56 129 -86
c148 -46 199 -88 199 -168c0 -91 -78 -157 -196 -157zM224 -250v37c28 5 40 21 40 52h-45v96h104v-84c0 -62 -34 -97 -99 -101z" />
    <glyph glyph-name="uni1E63" unicode="&#x1e63;" horiz-adv-x="502" 
d="M271 -15c-137 0 -223 71 -235 196l76 14c16 -97 62 -137 159 -137c72 0 117 36 117 84c0 42 -32 65 -146 99c-133 40 -181 78 -181 152c0 84 77 152 180 152c111 0 190 -61 210 -158l-76 -17c-18 67 -62 102 -134 102c-59 0 -102 -35 -102 -76c0 -37 32 -56 129 -86
c148 -46 199 -88 199 -168c0 -91 -78 -157 -196 -157zM318 -159h-96v94h96v-94z" />
    <glyph glyph-name="germandbls" unicode="&#xdf;" horiz-adv-x="556" 
d="M144 0h-78v511c0 123 84 204 211 204c119 0 203 -76 203 -184c0 -60 -32 -109 -83 -139v-2c69 -25 113 -91 113 -176c0 -134 -91 -214 -244 -214h-43v73h43c106 0 166 52 166 143c0 83 -51 131 -140 131h-69v70h50c81 0 129 40 129 110c0 71 -48 115 -125 115
c-86 0 -133 -52 -133 -146v-496z" />
    <glyph glyph-name="longs" unicode="&#x17f;" horiz-adv-x="273" 
d="M179 0h-78v459h-81v71h81v73c0 68 44 111 119 111h78v-73h-69c-34 0 -50 -15 -50 -50v-591z" />
    <glyph glyph-name="t" unicode="t" horiz-adv-x="338" 
d="M308 530v-70h-130v-339c0 -34 14 -48 58 -48h44v-73h-50c-96 0 -130 32 -130 122v338h-80v70h80v120h78v-120h130z" />
    <glyph glyph-name="tbar" unicode="&#x167;" horiz-adv-x="338" 
d="M308 530v-70h-130v-156h129v-59h-129v-124c0 -34 14 -48 58 -48h44v-73h-50c-96 0 -130 32 -130 122v123h-81v59h81v156h-80v70h80v120h78v-120h130z" />
    <glyph glyph-name="tcaron" unicode="&#x165;" horiz-adv-x="338" 
d="M233 671v96h104v-84c0 -62 -34 -97 -99 -101v37c28 5 40 21 40 52h-45zM100 650h78v-120h130v-70h-130v-339c0 -34 14 -48 58 -48h44v-73h-50c-96 0 -130 32 -130 122v338h-80v70h80v120z" />
    <glyph glyph-name="uni0163" unicode="&#x163;" horiz-adv-x="338" 
d="M217 -42c49 0 92 -33 92 -83c0 -55 -45 -91 -103 -91c-37 0 -72 13 -102 40l34 41c21 -20 43 -30 68 -30c29 0 48 17 48 41c0 25 -21 40 -47 40c-22 0 -39 -7 -55 -26l-43 19l53 99c-45 15 -62 50 -62 114v338h-80v70h80v120h78v-120h130v-70h-130v-339
c0 -34 14 -48 58 -48h44v-73h-50h-19l-28 -48c10 4 21 6 34 6z" />
    <glyph glyph-name="uni021B" unicode="&#x21b;" horiz-adv-x="338" 
d="M308 530v-70h-130v-339c0 -34 14 -48 58 -48h44v-73h-50c-96 0 -130 32 -130 122v338h-80v70h80v120h78v-120h130zM180 -146h-45v96h104v-84c0 -62 -34 -97 -99 -101v37c28 5 40 21 40 52z" />
    <glyph glyph-name="uni1E6D" unicode="&#x1e6d;" horiz-adv-x="338" 
d="M308 530v-70h-130v-339c0 -34 14 -48 58 -48h44v-73h-50c-96 0 -130 32 -130 122v338h-80v70h80v120h78v-120h130zM234 -144h-96v94h96v-94z" />
    <glyph glyph-name="u" unicode="u" horiz-adv-x="548" 
d="M248 -15c-118 0 -187 73 -187 201v344h78v-333c0 -94 42 -139 132 -139c81 0 133 56 133 139v333h78v-530h-76v49h-2c-33 -39 -92 -64 -156 -64z" />
    <glyph glyph-name="uacute" unicode="&#xfa;" horiz-adv-x="548" 
d="M295 590h-70l74 116h98zM248 -15c-118 0 -187 73 -187 201v344h78v-333c0 -94 42 -139 132 -139c81 0 133 56 133 139v333h78v-530h-76v49h-2c-33 -39 -92 -64 -156 -64z" />
    <glyph glyph-name="ubreve" unicode="&#x16d;" horiz-adv-x="548" 
d="M273 580c-76 0 -124 46 -128 121h49c6 -36 35 -56 79 -56c43 0 72 20 78 56h49c-4 -75 -52 -121 -127 -121zM248 -15c-118 0 -187 73 -187 201v344h78v-333c0 -94 42 -139 132 -139c81 0 133 56 133 139v333h78v-530h-76v49h-2c-33 -39 -92 -64 -156 -64z" />
    <glyph glyph-name="uni01D4" unicode="&#x1d4;" horiz-adv-x="548" 
d="M392 665l-66 -85h-108l-66 85l47 37l73 -92l73 92zM404 197v333h78v-530h-76v49h-2c-33 -39 -92 -64 -156 -64c-118 0 -187 73 -187 201v344h78v-333c0 -94 42 -139 132 -139c81 0 133 56 133 139z" />
    <glyph glyph-name="ucircumflex" unicode="&#xfb;" horiz-adv-x="548" 
d="M345 570l-73 92l-73 -92l-47 37l66 85h107l67 -85zM404 197v333h78v-530h-76v49h-2c-33 -39 -92 -64 -156 -64c-118 0 -187 73 -187 201v344h78v-333c0 -94 42 -139 132 -139c81 0 133 56 133 139z" />
    <glyph glyph-name="udieresis" unicode="&#xfc;" horiz-adv-x="548" 
d="M230 580h-96v94h96v-94zM410 580h-96v94h96v-94zM248 -15c-118 0 -187 73 -187 201v344h78v-333c0 -94 42 -139 132 -139c81 0 133 56 133 139v333h78v-530h-76v49h-2c-33 -39 -92 -64 -156 -64z" />
    <glyph glyph-name="uni01D8" unicode="&#x1d8;" horiz-adv-x="548" 
d="M295 714h-70l74 116h98zM230 580h-96v94h96v-94zM410 580h-96v94h96v-94zM248 -15c-118 0 -187 73 -187 201v344h78v-333c0 -94 42 -139 132 -139c81 0 133 56 133 139v333h78v-530h-76v49h-2c-33 -39 -92 -64 -156 -64z" />
    <glyph glyph-name="uni01DA" unicode="&#x1da;" horiz-adv-x="548" 
d="M392 789l-66 -85h-108l-66 85l47 37l73 -92l73 92zM134 674h96v-94h-96v94zM410 580h-96v94h96v-94zM404 197v333h78v-530h-76v49h-2c-33 -39 -92 -64 -156 -64c-118 0 -187 73 -187 201v344h78v-333c0 -94 42 -139 132 -139c81 0 133 56 133 139z" />
    <glyph glyph-name="uni01DC" unicode="&#x1dc;" horiz-adv-x="548" 
d="M321 714h-70l-102 116h98zM230 580h-96v94h96v-94zM410 580h-96v94h96v-94zM248 -15c-118 0 -187 73 -187 201v344h78v-333c0 -94 42 -139 132 -139c81 0 133 56 133 139v333h78v-530h-76v49h-2c-33 -39 -92 -64 -156 -64z" />
    <glyph glyph-name="uni01D6" unicode="&#x1d6;" horiz-adv-x="548" 
d="M406 714h-267v63h267v-63zM230 580h-96v94h96v-94zM410 580h-96v94h96v-94zM248 -15c-118 0 -187 73 -187 201v344h78v-333c0 -94 42 -139 132 -139c81 0 133 56 133 139v333h78v-530h-76v49h-2c-33 -39 -92 -64 -156 -64z" />
    <glyph glyph-name="uni1EE5" unicode="&#x1ee5;" horiz-adv-x="548" 
d="M248 -15c-118 0 -187 73 -187 201v344h78v-333c0 -94 42 -139 132 -139c81 0 133 56 133 139v333h78v-530h-76v49h-2c-33 -39 -92 -64 -156 -64zM296 -159h-96v94h96v-94z" />
    <glyph glyph-name="ugrave" unicode="&#xf9;" horiz-adv-x="548" 
d="M321 590h-70l-102 116h98zM248 -15c-118 0 -187 73 -187 201v344h78v-333c0 -94 42 -139 132 -139c81 0 133 56 133 139v333h78v-530h-76v49h-2c-33 -39 -92 -64 -156 -64z" />
    <glyph glyph-name="uni1EE7" unicode="&#x1ee7;" horiz-adv-x="548" 
d="M273 681c-18 0 -36 -7 -62 -26l-25 41c34 22 64 32 92 32c51 0 84 -27 84 -63c0 -28 -26 -53 -64 -65v-20h-53v48h1c40 5 60 15 60 31c0 13 -13 22 -33 22zM404 197v333h78v-530h-76v49h-2c-33 -39 -92 -64 -156 -64c-118 0 -187 73 -187 201v344h78v-333
c0 -94 42 -139 132 -139c81 0 133 56 133 139z" />
    <glyph glyph-name="uhorn" unicode="&#x1b0;" horiz-adv-x="558" 
d="M503 618h59c0 -97 -26 -130 -80 -136v-482h-76v49h-2c-33 -39 -92 -64 -156 -64c-118 0 -187 73 -187 201v344h78v-333c0 -94 42 -139 132 -139c81 0 133 56 133 139v333h52c36 0 47 14 47 88z" />
    <glyph glyph-name="uni1EE9" unicode="&#x1ee9;" horiz-adv-x="558" 
d="M299 706h98l-102 -116h-70zM503 618h59c0 -97 -26 -130 -80 -136v-482h-76v49h-2c-33 -39 -92 -64 -156 -64c-118 0 -187 73 -187 201v344h78v-333c0 -94 42 -139 132 -139c81 0 133 56 133 139v333h52c36 0 47 14 47 88z" />
    <glyph glyph-name="uni1EF1" unicode="&#x1ef1;" horiz-adv-x="558" 
d="M503 618h59c0 -97 -26 -130 -80 -136v-482h-76v49h-2c-33 -39 -92 -64 -156 -64c-118 0 -187 73 -187 201v344h78v-333c0 -94 42 -139 132 -139c81 0 133 56 133 139v333h52c36 0 47 14 47 88zM296 -159h-96v94h96v-94z" />
    <glyph glyph-name="uni1EEB" unicode="&#x1eeb;" horiz-adv-x="558" 
d="M247 706l74 -116h-70l-102 116h98zM503 618h59c0 -97 -26 -130 -80 -136v-482h-76v49h-2c-33 -39 -92 -64 -156 -64c-118 0 -187 73 -187 201v344h78v-333c0 -94 42 -139 132 -139c81 0 133 56 133 139v333h52c36 0 47 14 47 88z" />
    <glyph glyph-name="uni1EED" unicode="&#x1eed;" horiz-adv-x="558" 
d="M273 681c-18 0 -36 -7 -62 -26l-25 41c34 22 64 32 92 32c51 0 84 -27 84 -63c0 -28 -26 -53 -64 -65v-20h-53v48h1c40 5 60 15 60 31c0 13 -13 22 -33 22zM503 618h59c0 -97 -26 -130 -80 -136v-482h-76v49h-2c-33 -39 -92 -64 -156 -64c-118 0 -187 73 -187 201v344h78
v-333c0 -94 42 -139 132 -139c81 0 133 56 133 139v333h52c36 0 47 14 47 88z" />
    <glyph glyph-name="uni1EEF" unicode="&#x1eef;" horiz-adv-x="558" 
d="M212 623c-20 0 -31 -11 -36 -33h-47c4 57 37 93 87 93c52 0 79 -38 115 -38c20 0 31 11 36 33h47c-4 -57 -37 -93 -87 -93c-52 0 -79 38 -115 38zM503 618h59c0 -97 -26 -130 -80 -136v-482h-76v49h-2c-33 -39 -92 -64 -156 -64c-118 0 -187 73 -187 201v344h78v-333
c0 -94 42 -139 132 -139c81 0 133 56 133 139v333h52c36 0 47 14 47 88z" />
    <glyph glyph-name="uhungarumlaut" unicode="&#x171;" horiz-adv-x="548" 
d="M209 590h-70l74 116h98zM363 590h-70l74 116h98zM248 -15c-118 0 -187 73 -187 201v344h78v-333c0 -94 42 -139 132 -139c81 0 133 56 133 139v333h78v-530h-76v49h-2c-33 -39 -92 -64 -156 -64z" />
    <glyph glyph-name="umacron" unicode="&#x16b;" horiz-adv-x="548" 
d="M406 590h-267v63h267v-63zM248 -15c-118 0 -187 73 -187 201v344h78v-333c0 -94 42 -139 132 -139c81 0 133 56 133 139v333h78v-530h-76v49h-2c-33 -39 -92 -64 -156 -64z" />
    <glyph glyph-name="uogonek" unicode="&#x173;" horiz-adv-x="548" 
d="M490 -116l24 -63c-28 -13 -59 -21 -94 -21c-57 0 -91 32 -89 85c2 40 33 82 82 115h-7v49h-2c-33 -39 -92 -64 -156 -64c-118 0 -187 73 -187 201v344h78v-333c0 -94 42 -139 132 -139c81 0 133 56 133 139v333h78v-530h-7c-44 -24 -78 -57 -78 -99c0 -24 12 -35 34 -35
c19 0 39 7 59 18z" />
    <glyph glyph-name="uring" unicode="&#x16f;" horiz-adv-x="548" 
d="M272 530c-71 0 -122 48 -122 114c0 65 51 113 122 113c70 0 122 -48 122 -113c0 -66 -52 -114 -122 -114zM272 578c38 0 65 28 65 66s-27 65 -65 65s-65 -27 -65 -65s27 -66 65 -66zM248 -15c-118 0 -187 73 -187 201v344h78v-333c0 -94 42 -139 132 -139
c81 0 133 56 133 139v333h78v-530h-76v49h-2c-33 -39 -92 -64 -156 -64z" />
    <glyph glyph-name="utilde" unicode="&#x169;" horiz-adv-x="548" 
d="M327 585c-52 0 -79 38 -115 38c-20 0 -31 -11 -36 -33h-47c4 57 37 93 87 93c52 0 79 -38 115 -38c20 0 31 11 36 33h47c-4 -57 -37 -93 -87 -93zM248 -15c-118 0 -187 73 -187 201v344h78v-333c0 -94 42 -139 132 -139c81 0 133 56 133 139v333h78v-530h-76v49h-2
c-33 -39 -92 -64 -156 -64z" />
    <glyph glyph-name="v" unicode="v" horiz-adv-x="536" 
d="M302 0h-68l-224 530h84l173 -423h2l173 423h84z" />
    <glyph glyph-name="w" unicode="w" horiz-adv-x="755" 
d="M226 0h-74l-127 530h77l96 -412h2l142 412h71l142 -412h2l96 412h77l-127 -530h-74l-150 433h-2z" />
    <glyph glyph-name="wacute" unicode="&#x1e83;" horiz-adv-x="755" 
d="M401 590h-70l74 116h98zM226 0h-74l-127 530h77l96 -412h2l142 412h71l142 -412h2l96 412h77l-127 -530h-74l-150 433h-2z" />
    <glyph glyph-name="wcircumflex" unicode="&#x175;" horiz-adv-x="755" 
d="M451 570l-73 92l-73 -92l-47 37l66 85h107l67 -85zM557 118l96 412h77l-127 -530h-74l-150 433h-2l-151 -433h-74l-127 530h77l96 -412h2l142 412h71l142 -412h2z" />
    <glyph glyph-name="wdieresis" unicode="&#x1e85;" horiz-adv-x="755" 
d="M336 580h-96v94h96v-94zM516 580h-96v94h96v-94zM226 0h-74l-127 530h77l96 -412h2l142 412h71l142 -412h2l96 412h77l-127 -530h-74l-150 433h-2z" />
    <glyph glyph-name="wgrave" unicode="&#x1e81;" horiz-adv-x="755" 
d="M427 590h-70l-102 116h98zM226 0h-74l-127 530h77l96 -412h2l142 412h71l142 -412h2l96 412h77l-127 -530h-74l-150 433h-2z" />
    <glyph glyph-name="x" unicode="x" horiz-adv-x="469" 
d="M97 0h-92l182 270l-176 260h92l130 -199h2l131 199h92l-177 -260l183 -270h-92l-137 209h-2z" />
    <glyph glyph-name="y" unicode="y" horiz-adv-x="511" 
d="M183 -225h-81l114 268l-206 487h84l161 -395h2l161 395h83z" />
    <glyph glyph-name="yacute" unicode="&#xfd;" horiz-adv-x="511" 
d="M279 590h-70l74 116h98zM183 -225h-81l114 268l-206 487h84l161 -395h2l161 395h83z" />
    <glyph glyph-name="ycircumflex" unicode="&#x177;" horiz-adv-x="511" 
d="M329 570l-73 92l-73 -92l-47 37l66 85h107l67 -85zM257 135l161 395h83l-318 -755h-81l114 268l-206 487h84l161 -395h2z" />
    <glyph glyph-name="ydieresis" unicode="&#xff;" horiz-adv-x="511" 
d="M214 580h-96v94h96v-94zM394 580h-96v94h96v-94zM183 -225h-81l114 268l-206 487h84l161 -395h2l161 395h83z" />
    <glyph glyph-name="uni1EF5" unicode="&#x1ef5;" horiz-adv-x="511" 
d="M183 -225h-81l114 268l-206 487h84l161 -395h2l161 395h83zM402 -144h-96v94h96v-94z" />
    <glyph glyph-name="ygrave" unicode="&#x1ef3;" horiz-adv-x="511" 
d="M306 590h-70l-102 116h98zM183 -225h-81l114 268l-206 487h84l161 -395h2l161 395h83z" />
    <glyph glyph-name="uni1EF7" unicode="&#x1ef7;" horiz-adv-x="511" 
d="M257 681c-18 0 -36 -7 -62 -26l-25 41c34 22 64 32 92 32c51 0 84 -27 84 -63c0 -28 -26 -53 -64 -65v-20h-53v48h1c40 5 60 15 60 31c0 13 -13 22 -33 22zM257 135l161 395h83l-318 -755h-81l114 268l-206 487h84l161 -395h2z" />
    <glyph glyph-name="uni1EF9" unicode="&#x1ef9;" horiz-adv-x="511" 
d="M311 585c-52 0 -79 38 -115 38c-20 0 -31 -11 -36 -33h-47c4 57 37 93 87 93c52 0 79 -38 115 -38c20 0 31 11 36 33h47c-4 -57 -37 -93 -87 -93zM183 -225h-81l114 268l-206 487h84l161 -395h2l161 395h83z" />
    <glyph glyph-name="z" unicode="z" horiz-adv-x="500" 
d="M470 0h-440v70l337 388v2h-325v70h420v-70l-337 -388v-2h345v-70z" />
    <glyph glyph-name="zacute" unicode="&#x17a;" horiz-adv-x="500" 
d="M273 590h-70l74 116h98zM470 0h-440v70l337 388v2h-325v70h420v-70l-337 -388v-2h345v-70z" />
    <glyph glyph-name="zcaron" unicode="&#x17e;" horiz-adv-x="500" 
d="M371 665l-66 -85h-108l-66 85l47 37l73 -92l73 92zM125 72v-2h345v-70h-440v70l337 388v2h-325v70h420v-70z" />
    <glyph glyph-name="zdotaccent" unicode="&#x17c;" horiz-adv-x="500" 
d="M295 623h-90v87h90v-87zM470 0h-440v70l337 388v2h-325v70h420v-70l-337 -388v-2h345v-70z" />
    <glyph glyph-name="uni1E93" unicode="&#x1e93;" horiz-adv-x="500" 
d="M470 0h-440v70l337 388v2h-325v70h420v-70l-337 -388v-2h345v-70zM298 -144h-96v94h96v-94z" />
    <glyph glyph-name="a.ordn" horiz-adv-x="280" 
d="M109 417c-56 0 -92 30 -92 78s32 74 108 91c47 11 63 20 63 36c0 21 -19 33 -48 33c-34 0 -58 -19 -64 -52l-61 10c9 56 59 94 125 94c67 0 110 -38 110 -97v-186h-55v29h-1c-14 -22 -47 -36 -85 -36zM123 470c35 0 66 25 66 54v42h-1c-7 -14 -28 -19 -51 -25
c-45 -13 -58 -23 -58 -41c0 -20 15 -30 44 -30z" />
    <glyph glyph-name="b.ordn" horiz-adv-x="318" 
d="M176 707c74 0 127 -60 127 -145s-53 -145 -127 -145c-36 0 -67 13 -83 34h-1v-27h-62v380h64v-129h1c17 20 46 32 81 32zM164 474c45 0 77 35 77 88s-32 89 -77 89c-39 0 -70 -30 -70 -67v-44c0 -37 31 -66 70 -66z" />
    <glyph glyph-name="c.ordn" horiz-adv-x="297" 
d="M152 417c-80 0 -137 60 -137 145s57 145 137 145c68 0 121 -43 130 -102l-62 -11c-8 37 -31 56 -68 56c-45 0 -73 -35 -73 -88s28 -88 73 -88c37 0 60 19 68 56l62 -11c-9 -59 -62 -102 -130 -102z" />
    <glyph glyph-name="d.ordn" horiz-adv-x="318" 
d="M142 707c35 0 64 -12 82 -32h1v129h63v-380h-61v27h-1c-17 -21 -48 -34 -84 -34c-74 0 -127 60 -127 145s53 145 127 145zM154 474c39 0 71 29 71 66v44c0 37 -32 67 -71 67c-45 0 -76 -36 -76 -89s31 -88 76 -88z" />
    <glyph glyph-name="e.ordn" horiz-adv-x="302" 
d="M287 563v-26h-207c7 -39 34 -63 76 -63c27 0 47 12 71 42l49 -37c-28 -41 -70 -62 -122 -62c-84 0 -139 57 -139 145c0 84 58 145 137 145c80 0 135 -58 135 -144zM80 590h144c-2 36 -32 60 -72 60c-39 0 -66 -22 -72 -60z" />
    <glyph glyph-name="f.ordn" horiz-adv-x="198" 
d="M117 424h-63v219h-49v57h49v28c0 49 30 75 83 75h46v-54h-41c-18 0 -25 -7 -25 -24v-25h76v-57h-76v-219z" />
    <glyph glyph-name="g.ordn" horiz-adv-x="314" 
d="M157 296c-51 0 -99 23 -123 70l51 32c17 -33 42 -45 72 -45c36 0 65 20 65 71v23h-1c-17 -19 -45 -30 -79 -30c-77 0 -127 60 -127 145c0 80 53 145 131 145c30 0 60 -11 77 -31h1v24h60v-272c0 -85 -53 -132 -127 -132zM154 474c38 0 67 24 67 56v66c0 30 -30 54 -67 54
c-46 0 -75 -36 -75 -88s29 -88 75 -88z" />
    <glyph glyph-name="h.ordn" horiz-adv-x="311" 
d="M94 424h-64v380h64v-134h1c19 24 49 37 85 37c63 0 106 -38 106 -98v-185h-63v160c0 40 -24 67 -64 67c-41 0 -65 -27 -65 -65v-162z" />
    <glyph glyph-name="i.ordn" horiz-adv-x="129" 
d="M99 747h-69v64h69v-64zM97 424h-64v276h64v-276z" />
    <glyph glyph-name="j.ordn" horiz-adv-x="135" 
d="M105 747h-69v64h69v-64zM18 323h-38v58h29c23 0 30 7 30 28v291h64v-298c0 -56 -26 -79 -85 -79z" />
    <glyph glyph-name="k.ordn" horiz-adv-x="275" 
d="M94 424h-64v380h64v-213h1l102 109h78l-104 -109l103 -167h-74l-72 123h-1l-33 -36v-87z" />
    <glyph glyph-name="l.ordn" horiz-adv-x="124" 
d="M94 424h-64v380h64v-380z" />
    <glyph glyph-name="m.ordn" horiz-adv-x="455" 
d="M94 424h-64v276h62v-27h1c18 23 46 34 74 34c32 0 63 -14 79 -37h1c18 23 49 37 81 37c61 0 102 -41 102 -102v-181h-64v175c0 32 -21 51 -51 51c-32 0 -54 -19 -54 -52v-174h-61v175c0 32 -22 51 -53 51s-53 -19 -53 -52v-174z" />
    <glyph glyph-name="n.ordn" horiz-adv-x="311" 
d="M94 424h-64v276h61v-33h1c21 26 51 40 88 40c63 0 106 -38 106 -98v-185h-63v160c0 40 -24 66 -64 66c-41 0 -65 -26 -65 -64v-162z" />
    <glyph glyph-name="o.ordn" horiz-adv-x="310" 
d="M155 417c-82 0 -140 59 -140 145s58 145 140 145s140 -59 140 -145s-58 -145 -140 -145zM155 474c47 0 76 34 76 88s-29 88 -76 88s-76 -34 -76 -88s29 -88 76 -88z" />
    <glyph glyph-name="p.ordn" horiz-adv-x="321" 
d="M177 707c75 0 129 -60 129 -145s-54 -145 -129 -145c-35 0 -65 12 -82 32h-1v-146h-64v397h61v-29h1c16 22 48 36 85 36zM165 474c46 0 78 35 78 88s-32 89 -78 89c-39 0 -71 -30 -71 -67v-44c0 -37 32 -66 71 -66z" />
    <glyph glyph-name="q.ordn" horiz-adv-x="321" 
d="M144 707c37 0 69 -14 85 -36h1v29h61v-397h-64v146h-1c-17 -20 -47 -32 -82 -32c-75 0 -129 60 -129 145s54 145 129 145zM156 474c39 0 71 29 71 66v44c0 37 -32 67 -71 67c-46 0 -77 -36 -77 -89s31 -88 77 -88z" />
    <glyph glyph-name="r.ordn" horiz-adv-x="196" 
d="M159 705c16 0 28 -2 37 -4l-11 -59c-8 2 -18 4 -28 4c-40 0 -63 -24 -63 -80v-142h-64v276h60v-27h1c13 20 39 32 68 32z" />
    <glyph glyph-name="s.ordn" horiz-adv-x="293" 
d="M156 417c-70 0 -120 37 -131 98l56 15c11 -42 32 -61 75 -61c33 0 51 11 51 35c0 17 -15 26 -66 40c-75 19 -104 41 -104 82c0 48 42 81 103 81c60 0 104 -30 119 -81l-55 -16c-9 29 -33 45 -64 45c-26 0 -42 -10 -42 -27c0 -15 14 -23 60 -35c78 -19 109 -43 109 -87
c0 -54 -44 -89 -111 -89z" />
    <glyph glyph-name="t.ordn" horiz-adv-x="189" 
d="M183 700v-57h-72v-136c0 -17 8 -22 30 -22h31v-61h-35c-65 0 -89 22 -89 77v142h-43v57h43v67h63v-67h72z" />
    <glyph glyph-name="u.ordn" horiz-adv-x="303" 
d="M210 538v162h63v-276h-61v24h-1c-18 -21 -46 -31 -79 -31c-62 0 -107 34 -107 108v175h64v-170c0 -36 19 -56 59 -56c37 0 62 25 62 64z" />
    <glyph glyph-name="v.ordn" horiz-adv-x="307" 
d="M179 424h-54l-115 276h69l74 -187h1l73 187h68z" />
    <glyph glyph-name="w.ordn" horiz-adv-x="431" 
d="M144 424h-68l-66 276h67l41 -192h1l65 192h62l64 -192h1l41 192h67l-66 -276h-67l-71 197h-1z" />
    <glyph glyph-name="x.ordn" horiz-adv-x="313" 
d="M90 424h-80l106 139l-104 137h78l65 -92h1l65 92h78l-104 -137l106 -139h-80l-65 94h-1z" />
    <glyph glyph-name="y.ordn" horiz-adv-x="311" 
d="M155 521l74 179h70l-169 -397h-69l60 143l-111 254h71l73 -179h1z" />
    <glyph glyph-name="z.ordn" horiz-adv-x="280" 
d="M268 424h-258v51l163 167v1h-159v57h249v-51l-163 -167v-1h168v-57z" />
    <glyph glyph-name="a.ss01" horiz-adv-x="580" 
d="M441 482v48h74v-530h-74v48h-2c-33 -38 -90 -63 -155 -63c-137 0 -238 110 -238 280s101 280 238 280c65 0 122 -25 155 -63h2zM290 58c85 0 147 60 147 129v156c0 69 -62 129 -147 129c-100 0 -166 -75 -166 -207s66 -207 166 -207z" />
    <glyph glyph-name="aacute.ss01" horiz-adv-x="580" 
d="M309 605h-70l74 116h98zM441 482v48h74v-530h-74v48h-2c-33 -38 -90 -63 -155 -63c-137 0 -238 110 -238 280s101 280 238 280c65 0 122 -25 155 -63h2zM290 58c85 0 147 60 147 129v156c0 69 -62 129 -147 129c-100 0 -166 -75 -166 -207s66 -207 166 -207z" />
    <glyph glyph-name="abreve.ss01" horiz-adv-x="580" 
d="M287 595c-76 0 -124 46 -128 121h49c6 -36 35 -56 79 -56c43 0 72 20 78 56h49c-4 -75 -52 -121 -127 -121zM441 482v48h74v-530h-74v48h-2c-33 -38 -90 -63 -155 -63c-137 0 -238 110 -238 280s101 280 238 280c65 0 122 -25 155 -63h2zM290 58c85 0 147 60 147 129v156
c0 69 -62 129 -147 129c-100 0 -166 -75 -166 -207s66 -207 166 -207z" />
    <glyph glyph-name="uni1EAF.ss01" horiz-adv-x="580" 
d="M308 736h-69l73 116h99zM287 595c-76 0 -124 46 -128 121h49c6 -36 35 -56 79 -56c43 0 72 20 78 56h49c-4 -75 -52 -121 -127 -121zM441 482v48h74v-530h-74v48h-2c-33 -38 -90 -63 -155 -63c-137 0 -238 110 -238 280s101 280 238 280c65 0 122 -25 155 -63h2zM290 58
c85 0 147 60 147 129v156c0 69 -62 129 -147 129c-100 0 -166 -75 -166 -207s66 -207 166 -207z" />
    <glyph glyph-name="uni1EB7.ss01" horiz-adv-x="580" 
d="M287 595c-76 0 -124 46 -128 121h49c6 -36 35 -56 79 -56c43 0 72 20 78 56h49c-4 -75 -52 -121 -127 -121zM441 482v48h74v-530h-74v48h-2c-33 -38 -90 -63 -155 -63c-137 0 -238 110 -238 280s101 280 238 280c65 0 122 -25 155 -63h2zM290 58c85 0 147 60 147 129v156
c0 69 -62 129 -147 129c-100 0 -166 -75 -166 -207s66 -207 166 -207zM343 -159h-96v94h96v-94z" />
    <glyph glyph-name="uni1EB1.ss01" horiz-adv-x="580" 
d="M335 736h-69l-103 116h99zM287 595c-76 0 -124 46 -128 121h49c6 -36 35 -56 79 -56c43 0 72 20 78 56h49c-4 -75 -52 -121 -127 -121zM441 482v48h74v-530h-74v48h-2c-33 -38 -90 -63 -155 -63c-137 0 -238 110 -238 280s101 280 238 280c65 0 122 -25 155 -63h2z
M290 58c85 0 147 60 147 129v156c0 69 -62 129 -147 129c-100 0 -166 -75 -166 -207s66 -207 166 -207z" />
    <glyph glyph-name="uni1EB3.ss01" horiz-adv-x="580" 
d="M285 809c-17 0 -34 -7 -60 -25l-23 40c32 20 61 30 87 30c48 0 80 -26 80 -61c0 -27 -24 -49 -60 -61v-19h-51v45c39 5 58 14 58 30c0 12 -12 21 -31 21zM287 595c-76 0 -124 46 -128 121h49c6 -36 35 -56 79 -56c43 0 72 20 78 56h49c-4 -75 -52 -121 -127 -121z
M441 482v48h74v-530h-74v48h-2c-33 -38 -90 -63 -155 -63c-137 0 -238 110 -238 280s101 280 238 280c65 0 122 -25 155 -63h2zM437 187v156c0 69 -62 129 -147 129c-100 0 -166 -75 -166 -207s66 -207 166 -207c85 0 147 60 147 129z" />
    <glyph glyph-name="uni1EB5.ss01" horiz-adv-x="580" 
d="M336 740c-46 0 -70 37 -102 37c-18 0 -28 -11 -32 -32h-42c3 55 33 88 77 88c46 0 70 -36 102 -36c18 0 28 11 32 32h42c-4 -55 -33 -89 -77 -89zM287 595c-76 0 -124 46 -128 121h49c6 -36 35 -56 79 -56c43 0 72 20 78 56h49c-4 -75 -52 -121 -127 -121zM441 482v48h74
v-530h-74v48h-2c-33 -38 -90 -63 -155 -63c-137 0 -238 110 -238 280s101 280 238 280c65 0 122 -25 155 -63h2zM290 58c85 0 147 60 147 129v156c0 69 -62 129 -147 129c-100 0 -166 -75 -166 -207s66 -207 166 -207z" />
    <glyph glyph-name="uni01CE.ss01" horiz-adv-x="580" 
d="M406 680l-66 -85h-108l-66 85l47 37l73 -92l73 92zM441 482v48h74v-530h-74v48h-2c-33 -38 -90 -63 -155 -63c-137 0 -238 110 -238 280s101 280 238 280c65 0 122 -25 155 -63h2zM437 187v156c0 69 -62 129 -147 129c-100 0 -166 -75 -166 -207s66 -207 166 -207
c85 0 147 60 147 129z" />
    <glyph glyph-name="acircumflex.ss01" horiz-adv-x="580" 
d="M359 585l-73 92l-73 -92l-47 37l66 85h107l67 -85zM441 482v48h74v-530h-74v48h-2c-33 -38 -90 -63 -155 -63c-137 0 -238 110 -238 280s101 280 238 280c65 0 122 -25 155 -63h2zM437 187v156c0 69 -62 129 -147 129c-100 0 -166 -75 -166 -207s66 -207 166 -207
c85 0 147 60 147 129z" />
    <glyph glyph-name="uni1EA5.ss01" horiz-adv-x="580" 
d="M455 776h89l-93 -104h-62zM359 585l-73 92l-73 -92l-47 37l66 85h107l67 -85zM439 482h2v48h74v-530h-74v48h-2c-33 -38 -90 -63 -155 -63c-137 0 -238 110 -238 280s101 280 238 280c65 0 122 -25 155 -63zM437 187v156c0 69 -62 129 -147 129
c-100 0 -166 -75 -166 -207s66 -207 166 -207c85 0 147 60 147 129z" />
    <glyph glyph-name="uni1EAD.ss01" horiz-adv-x="580" 
d="M359 585l-73 92l-73 -92l-47 37l66 85h107l67 -85zM441 482v48h74v-530h-74v48h-2c-33 -38 -90 -63 -155 -63c-137 0 -238 110 -238 280s101 280 238 280c65 0 122 -25 155 -63h2zM437 187v156c0 69 -62 129 -147 129c-100 0 -166 -75 -166 -207s66 -207 166 -207
c85 0 147 60 147 129zM343 -159h-96v94h96v-94z" />
    <glyph glyph-name="uni1EA7.ss01" horiz-adv-x="580" 
d="M409 776l66 -104h-62l-93 104h89zM359 585l-73 92l-73 -92l-47 37l66 85h107l67 -85zM441 482v48h74v-530h-74v48h-2c-33 -38 -90 -63 -155 -63c-137 0 -238 110 -238 280s101 280 238 280c65 0 122 -25 155 -63h2zM437 187v156c0 69 -62 129 -147 129
c-100 0 -166 -75 -166 -207s66 -207 166 -207c85 0 147 60 147 129z" />
    <glyph glyph-name="uni1EA9.ss01" horiz-adv-x="580" 
d="M419 762c-16 0 -32 -7 -56 -23l-22 37c30 19 58 28 83 28c45 0 76 -24 76 -57c0 -25 -24 -47 -58 -58v-18h-49v43h1c37 4 55 13 55 28c0 12 -12 20 -30 20zM359 585l-73 92l-73 -92l-47 37l66 85h107l67 -85zM441 482v48h74v-530h-74v48h-2c-33 -38 -90 -63 -155 -63
c-137 0 -238 110 -238 280s101 280 238 280c65 0 122 -25 155 -63h2zM437 187v156c0 69 -62 129 -147 129c-100 0 -166 -75 -166 -207s66 -207 166 -207c85 0 147 60 147 129z" />
    <glyph glyph-name="uni1EAB.ss01" horiz-adv-x="580" 
d="M235 765c-16 0 -26 -10 -30 -31h-39c3 54 31 88 73 88c43 0 66 -37 96 -37c17 0 26 11 30 32h40c-4 -54 -32 -88 -73 -88c-44 0 -66 36 -97 36zM359 585l-73 92l-73 -92l-47 37l66 85h107l67 -85zM441 482v48h74v-530h-74v48h-2c-33 -38 -90 -63 -155 -63
c-137 0 -238 110 -238 280s101 280 238 280c65 0 122 -25 155 -63h2zM437 187v156c0 69 -62 129 -147 129c-100 0 -166 -75 -166 -207s66 -207 166 -207c85 0 147 60 147 129z" />
    <glyph glyph-name="adieresis.ss01" horiz-adv-x="580" 
d="M244 595h-96v94h96v-94zM424 595h-96v94h96v-94zM441 482v48h74v-530h-74v48h-2c-33 -38 -90 -63 -155 -63c-137 0 -238 110 -238 280s101 280 238 280c65 0 122 -25 155 -63h2zM290 58c85 0 147 60 147 129v156c0 69 -62 129 -147 129c-100 0 -166 -75 -166 -207
s66 -207 166 -207z" />
    <glyph glyph-name="uni01DF.ss01" horiz-adv-x="580" 
d="M420 729h-267v63h267v-63zM244 595h-96v94h96v-94zM424 595h-96v94h96v-94zM441 482v48h74v-530h-74v48h-2c-33 -38 -90 -63 -155 -63c-137 0 -238 110 -238 280s101 280 238 280c65 0 122 -25 155 -63h2zM290 58c85 0 147 60 147 129v156c0 69 -62 129 -147 129
c-100 0 -166 -75 -166 -207s66 -207 166 -207z" />
    <glyph glyph-name="uni1EA1.ss01" horiz-adv-x="580" 
d="M441 482v48h74v-530h-74v48h-2c-33 -38 -90 -63 -155 -63c-137 0 -238 110 -238 280s101 280 238 280c65 0 122 -25 155 -63h2zM290 58c85 0 147 60 147 129v156c0 69 -62 129 -147 129c-100 0 -166 -75 -166 -207s66 -207 166 -207zM343 -159h-96v94h96v-94z" />
    <glyph glyph-name="agrave.ss01" horiz-adv-x="580" 
d="M336 605h-70l-102 116h98zM441 482v48h74v-530h-74v48h-2c-33 -38 -90 -63 -155 -63c-137 0 -238 110 -238 280s101 280 238 280c65 0 122 -25 155 -63h2zM290 58c85 0 147 60 147 129v156c0 69 -62 129 -147 129c-100 0 -166 -75 -166 -207s66 -207 166 -207z" />
    <glyph glyph-name="uni1EA3.ss01" horiz-adv-x="580" 
d="M287 696c-18 0 -36 -7 -62 -26l-25 41c34 22 64 32 92 32c51 0 84 -27 84 -63c0 -28 -26 -53 -64 -65v-20h-53v48h1c40 5 60 15 60 31c0 13 -13 22 -33 22zM441 482v48h74v-530h-74v48h-2c-33 -38 -90 -63 -155 -63c-137 0 -238 110 -238 280s101 280 238 280
c65 0 122 -25 155 -63h2zM437 187v156c0 69 -62 129 -147 129c-100 0 -166 -75 -166 -207s66 -207 166 -207c85 0 147 60 147 129z" />
    <glyph glyph-name="amacron.ss01" horiz-adv-x="580" 
d="M420 605h-267v63h267v-63zM441 482v48h74v-530h-74v48h-2c-33 -38 -90 -63 -155 -63c-137 0 -238 110 -238 280s101 280 238 280c65 0 122 -25 155 -63h2zM290 58c85 0 147 60 147 129v156c0 69 -62 129 -147 129c-100 0 -166 -75 -166 -207s66 -207 166 -207z" />
    <glyph glyph-name="aogonek.ss01" horiz-adv-x="580" 
d="M524 -116l24 -63c-28 -13 -59 -21 -94 -21c-57 0 -91 32 -89 85c2 40 33 82 82 115h-6v48h-2c-33 -38 -90 -63 -155 -63c-137 0 -238 110 -238 280s101 280 238 280c65 0 122 -25 155 -63h2v48h74v-530h-6c-44 -24 -78 -57 -78 -99c0 -24 12 -35 34 -35c19 0 39 7 59 18z
M437 187v156c0 69 -62 129 -147 129c-100 0 -166 -75 -166 -207s66 -207 166 -207c85 0 147 60 147 129z" />
    <glyph glyph-name="aring.ss01" horiz-adv-x="580" 
d="M289 578c-64 0 -110 43 -110 102s46 102 110 102s110 -43 110 -102s-46 -102 -110 -102zM289 621c34 0 59 25 59 59c0 35 -25 59 -59 59c-35 0 -59 -24 -59 -59c0 -34 24 -59 59 -59zM441 482v48h74v-530h-74v48h-2c-33 -38 -90 -63 -155 -63c-137 0 -238 110 -238 280
s101 280 238 280c65 0 122 -25 155 -63h2zM290 58c85 0 147 60 147 129v156c0 69 -62 129 -147 129c-100 0 -166 -75 -166 -207s66 -207 166 -207z" />
    <glyph glyph-name="aringacute.ss01" horiz-adv-x="580" 
d="M282 578c-63 0 -110 43 -110 102c0 46 29 83 72 96l69 109h98l-94 -108c45 -12 75 -49 75 -97c0 -59 -46 -102 -110 -102zM282 739c-34 0 -59 -24 -59 -59c0 -34 25 -59 59 -59c35 0 59 25 59 59c0 35 -24 59 -59 59zM441 482v48h74v-530h-74v48h-2
c-33 -38 -90 -63 -155 -63c-137 0 -238 110 -238 280s101 280 238 280c65 0 122 -25 155 -63h2zM437 187v156c0 69 -62 129 -147 129c-100 0 -166 -75 -166 -207s66 -207 166 -207c85 0 147 60 147 129z" />
    <glyph glyph-name="atilde.ss01" horiz-adv-x="580" 
d="M341 600c-52 0 -79 38 -115 38c-20 0 -31 -11 -36 -33h-47c4 57 37 93 87 93c52 0 79 -38 115 -38c20 0 31 11 36 33h47c-4 -57 -37 -93 -87 -93zM441 482v48h74v-530h-74v48h-2c-33 -38 -90 -63 -155 -63c-137 0 -238 110 -238 280s101 280 238 280
c65 0 122 -25 155 -63h2zM290 58c85 0 147 60 147 129v156c0 69 -62 129 -147 129c-100 0 -166 -75 -166 -207s66 -207 166 -207z" />
    <glyph glyph-name="aring.ss02" horiz-adv-x="510" 
d="M257 578c-64 0 -111 43 -111 102s47 102 111 102c63 0 110 -43 110 -102s-47 -102 -110 -102zM257 621c34 0 59 25 59 59c0 35 -25 59 -59 59c-35 0 -59 -24 -59 -59c0 -34 24 -59 59 -59zM220 -15c-107 0 -174 58 -174 150c0 90 53 136 186 168c102 25 135 47 135 90
c0 49 -43 81 -109 81c-70 0 -119 -43 -133 -114l-79 15c18 104 101 170 212 170c119 0 191 -66 191 -172v-373h-73v56h-2c-32 -44 -90 -71 -154 -71zM226 58c85 0 145 51 145 121v119h-2c-11 -26 -45 -44 -116 -62c-93 -24 -129 -50 -129 -96c0 -53 36 -82 102 -82z" />
    <glyph glyph-name="aringacute.ss02" horiz-adv-x="510" 
d="M256 578c-64 0 -110 43 -110 102c0 47 29 83 72 97l68 108h99l-95 -108c45 -12 76 -49 76 -97c0 -59 -47 -102 -110 -102zM256 739c-35 0 -59 -24 -59 -59c0 -34 24 -59 59 -59c34 0 59 25 59 59c0 35 -25 59 -59 59zM258 545c119 0 191 -66 191 -172v-373h-73v56h-2
c-32 -44 -90 -71 -154 -71c-107 0 -174 58 -174 150c0 90 53 136 186 168c102 25 135 47 135 90c0 49 -43 81 -109 81c-70 0 -119 -43 -133 -114l-79 15c18 104 101 170 212 170zM371 179v119h-2c-11 -26 -45 -44 -116 -62c-93 -24 -129 -50 -129 -96c0 -53 36 -82 102 -82
c85 0 145 51 145 121z" />
    <glyph glyph-name="f.ss03" horiz-adv-x="309" 
d="M189 0h-78v460h-91v70h91v58c0 68 44 112 119 112h78v-73h-69c-34 0 -50 -16 -50 -50v-47h104v-70h-104v-460z" />
    <glyph glyph-name="j.ss03" horiz-adv-x="209" 
d="M149 623h-90v87h90v-87zM144 -225h-78v755h78v-755z" />
    <glyph glyph-name="t.ss03" horiz-adv-x="304" 
d="M289 530v-70h-111v-339c0 -34 14 -48 58 -48h44v-73h-50c-96 0 -130 32 -130 122v338h-80v70h80v120h78v-120h111z" />
    <glyph glyph-name="ordfeminine" unicode="&#xaa;" horiz-adv-x="280" 
d="M109 417c-56 0 -92 30 -92 78s32 74 108 91c47 11 63 20 63 36c0 21 -19 33 -48 33c-34 0 -58 -19 -64 -52l-61 10c9 56 59 94 125 94c67 0 110 -38 110 -97v-186h-55v29h-1c-14 -22 -47 -36 -85 -36zM123 470c35 0 66 25 66 54v42h-1c-7 -14 -28 -19 -51 -25
c-45 -13 -58 -23 -58 -41c0 -20 15 -30 44 -30z" />
    <glyph glyph-name="ordmasculine" unicode="&#xba;" horiz-adv-x="310" 
d="M155 417c-82 0 -140 59 -140 145s58 145 140 145s140 -59 140 -145s-58 -145 -140 -145zM155 474c47 0 76 34 76 88s-29 88 -76 88s-76 -34 -76 -88s29 -88 76 -88z" />
    <glyph glyph-name="uni0410" unicode="&#x410;" horiz-adv-x="593" 
d="M588 0h-85l-49 141h-315l-49 -141h-85l251 700h81zM296 587l-131 -374h264l-131 374h-2z" />
    <glyph glyph-name="uni0411" unicode="&#x411;" horiz-adv-x="630" 
d="M168 418h191c137 0 231 -85 231 -209s-94 -209 -231 -209h-273v700h454v-78h-372v-204zM168 78h191c94 0 148 52 148 132s-54 131 -148 131h-191v-263z" />
    <glyph glyph-name="uni0412" unicode="&#x412;" horiz-adv-x="631" 
d="M339 0h-253v700h269c123 0 204 -72 204 -181c0 -63 -30 -115 -85 -144v-2c70 -28 111 -89 111 -166c0 -135 -85 -207 -246 -207zM168 622v-219h172c91 0 136 37 136 112c0 70 -46 107 -136 107h-172zM168 330v-252h160c122 0 174 39 174 129c0 87 -49 123 -172 123h-162z
" />
    <glyph glyph-name="uni0413" unicode="&#x413;" horiz-adv-x="538" 
d="M168 0h-82v700h427v-78h-345v-622z" />
    <glyph glyph-name="uni0403" unicode="&#x403;" horiz-adv-x="538" 
d="M312 760h-70l74 116h98zM168 0h-82v700h427v-78h-345v-622z" />
    <glyph glyph-name="uni0490" unicode="&#x490;" horiz-adv-x="539" 
d="M421 700v155h83v-233h-336v-622h-82v700h335z" />
    <glyph glyph-name="uni0414" unicode="&#x414;" horiz-adv-x="671" 
d="M575 700v-622h96v-233h-80v155h-506v-155h-80v233h38c80 23 97 83 104 307l10 315h418zM168 78h325v544h-260l-6 -241c-5 -167 -17 -256 -59 -301v-2z" />
    <glyph glyph-name="uni0415" unicode="&#x415;" horiz-adv-x="561" 
d="M506 0h-420v700h420v-78h-338v-224h310v-74h-310v-246h338v-78z" />
    <glyph glyph-name="uni0400" unicode="&#x400;" horiz-adv-x="561" 
d="M357 760h-70l-102 116h98zM506 0h-420v700h420v-78h-338v-224h310v-74h-310v-246h338v-78z" />
    <glyph glyph-name="uni0401" unicode="&#x401;" horiz-adv-x="561" 
d="M265 750h-96v94h96v-94zM445 750h-96v94h96v-94zM506 0h-420v700h420v-78h-338v-224h310v-74h-310v-246h338v-78z" />
    <glyph glyph-name="uni0416" unicode="&#x416;" horiz-adv-x="800" 
d="M698 700h97l-237 -335l237 -365h-99l-208 328h-46v-328h-83v328h-47l-207 -328h-100l238 365l-238 335h98l204 -294h52v294h83v-294h52z" />
    <glyph glyph-name="uni0417" unicode="&#x417;" horiz-adv-x="577" 
d="M299 -15c-148 0 -241 90 -258 248l82 13c14 -123 73 -183 176 -183c91 0 150 53 150 135c0 85 -54 130 -165 130h-60v72h60c83 0 147 50 147 123c0 72 -50 116 -133 116c-87 0 -146 -50 -158 -132l-78 12c16 119 110 196 236 196c128 0 216 -75 216 -186
c0 -70 -42 -132 -99 -160v-2c69 -26 116 -93 116 -169c0 -127 -93 -213 -232 -213z" />
    <glyph glyph-name="uni0418" unicode="&#x418;" horiz-adv-x="672" 
d="M586 700v-700h-83v550h-2l-338 -550h-77v700h82v-550h2l338 550h78z" />
    <glyph glyph-name="uni0419" unicode="&#x419;" horiz-adv-x="672" 
d="M336 750c-86 0 -131 47 -131 125h61c4 -48 21 -77 70 -77s66 29 70 77h61c0 -78 -45 -125 -131 -125zM586 700v-700h-83v550h-2l-338 -550h-77v700h82v-550h2l338 550h78z" />
    <glyph glyph-name="uni040D" unicode="&#x40d;" horiz-adv-x="672" 
d="M385 760h-70l-102 116h98zM586 700v-700h-83v550h-2l-338 -550h-77v700h82v-550h2l338 550h78z" />
    <glyph glyph-name="uni041A" unicode="&#x41a;" horiz-adv-x="577" 
d="M474 700h98l-274 -329l274 -371h-100l-241 334h-63v-334h-82v700h82v-294h70z" />
    <glyph glyph-name="uni040C" unicode="&#x40c;" horiz-adv-x="577" 
d="M316 876h98l-102 -116h-70zM474 700h98l-274 -329l274 -371h-100l-241 334h-63v-334h-82v700h82v-294h70z" />
    <glyph glyph-name="uni041B" unicode="&#x41b;" horiz-adv-x="661" 
d="M157 385l10 315h408v-700h-82v622h-250l-6 -241c-8 -285 -48 -363 -200 -386l-17 76c108 17 129 62 137 314z" />
    <glyph glyph-name="uni041C" unicode="&#x41c;" horiz-adv-x="847" 
d="M168 0h-82v700h110l227 -556h2l227 556h110v-700h-83v568h-2l-236 -568h-35l-236 568h-2v-568z" />
    <glyph glyph-name="uni041D" unicode="&#x41d;" horiz-adv-x="652" 
d="M168 0h-82v700h82v-304h316v304h82v-700h-82v324h-316v-324z" />
    <glyph glyph-name="uni041E" unicode="&#x41e;" horiz-adv-x="680" 
d="M340 -15c-177 0 -295 146 -295 365s118 365 295 365s295 -146 295 -365s-118 -365 -295 -365zM340 63c131 0 212 110 212 287s-81 287 -212 287s-212 -110 -212 -287s81 -287 212 -287z" />
    <glyph glyph-name="uni041F" unicode="&#x41f;" horiz-adv-x="642" 
d="M556 700v-700h-82v628h-306v-628h-82v700h470z" />
    <glyph glyph-name="uni0420" unicode="&#x420;" horiz-adv-x="615" 
d="M168 0h-82v700h270c148 0 234 -83 234 -216c0 -134 -86 -214 -234 -214h-188v-270zM168 622v-274h183c106 0 156 43 156 136s-51 138 -156 138h-183z" />
    <glyph glyph-name="uni0421" unicode="&#x421;" 
d="M340 -15c-179 0 -295 143 -295 365c0 219 118 365 295 365c144 0 248 -95 268 -244l-82 -14c-20 117 -84 180 -186 180c-131 0 -212 -110 -212 -287c0 -179 80 -287 212 -287c108 0 172 68 185 196l85 -11c-13 -163 -115 -263 -270 -263z" />
    <glyph glyph-name="uni0422" unicode="&#x422;" horiz-adv-x="589" 
d="M336 0h-83v622h-218v78h519v-78h-218v-622z" />
    <glyph glyph-name="uni0423" unicode="&#x423;" horiz-adv-x="572" 
d="M289 305l184 395h94l-338 -700h-92l106 212l-233 488h95l182 -395h2z" />
    <glyph glyph-name="uni040E" unicode="&#x40e;" horiz-adv-x="572" 
d="M289 750c-86 0 -131 47 -131 125h61c4 -48 21 -77 70 -77s66 29 70 77h61c0 -78 -45 -125 -131 -125zM289 305l184 395h94l-338 -700h-92l106 212l-233 488h95l182 -395h2z" />
    <glyph glyph-name="uni0424" unicode="&#x424;" horiz-adv-x="810" 
d="M446 720v-88c191 -5 319 -105 319 -277s-128 -272 -319 -277v-99h-83v99c-191 5 -318 105 -318 277s127 272 318 277v88h83zM363 151v408c-145 0 -235 -79 -235 -204s90 -204 235 -204zM446 559v-408c145 0 236 79 236 204s-91 204 -236 204z" />
    <glyph glyph-name="uni0425" unicode="&#x425;" horiz-adv-x="553" 
d="M107 0h-97l216 355l-210 345h97l163 -280h2l163 280h97l-210 -345l215 -355h-96l-169 290h-2z" />
    <glyph glyph-name="uni0427" unicode="&#x427;" horiz-adv-x="607" 
d="M439 388v312h82v-700h-82v310c-49 -24 -110 -33 -158 -33c-140 0 -230 81 -230 214v209h82v-200c0 -101 51 -150 158 -150c49 0 97 8 148 38z" />
    <glyph glyph-name="uni0426" unicode="&#x426;" horiz-adv-x="662" 
d="M566 700v-628h96v-227h-80v155h-496v700h82v-628h316v628h82z" />
    <glyph glyph-name="uni0428" unicode="&#x428;" horiz-adv-x="909" 
d="M741 72v628h83v-700h-738v700h82v-628h246v628h81v-628h246z" />
    <glyph glyph-name="uni0429" unicode="&#x429;" horiz-adv-x="919" 
d="M824 700v-628h95v-227h-80v155h-753v700h82v-628h246v628h81v-628h246v628h83z" />
    <glyph glyph-name="uni040F" unicode="&#x40f;" horiz-adv-x="652" 
d="M484 700h82v-700h-198v-155h-83v155h-199v700h82v-628h316v628z" />
    <glyph glyph-name="uni042C" unicode="&#x42c;" horiz-adv-x="635" 
d="M168 447h160c145 0 252 -75 252 -222c0 -150 -107 -225 -252 -225h-242v700h82v-253zM168 78h160c111 0 169 51 169 147c0 95 -59 146 -169 146h-160v-293z" />
    <glyph glyph-name="uni042A" unicode="&#x42a;" horiz-adv-x="741" 
d="M274 447h160c144 0 251 -75 251 -222c0 -150 -107 -225 -251 -225h-243v622h-166v78h249v-253zM274 78h160c110 0 168 51 168 147c0 95 -58 146 -168 146h-160v-293z" />
    <glyph glyph-name="uni042B" unicode="&#x42b;" horiz-adv-x="849" 
d="M168 447h160c145 0 252 -75 252 -222c0 -150 -107 -225 -252 -225h-242v700h82v-253zM680 0v700h83v-700h-83zM168 78h160c111 0 169 51 169 147c0 95 -59 146 -169 146h-160v-293z" />
    <glyph glyph-name="uni0409" unicode="&#x409;" horiz-adv-x="1023" 
d="M575 447h140c145 0 252 -75 252 -222c0 -150 -107 -225 -252 -225h-223v622h-249l-6 -241c-8 -285 -48 -363 -200 -386l-17 76c108 17 129 62 137 314l10 315h408v-253zM575 78h140c111 0 169 51 169 147c0 95 -58 146 -169 146h-140v-293z" />
    <glyph glyph-name="uni040A" unicode="&#x40a;" horiz-adv-x="999" 
d="M544 406h148c152 0 251 -80 251 -202c0 -123 -99 -204 -251 -204h-229v329h-295v-329h-82v700h82v-294h295v294h81v-294zM544 78h148c107 0 168 46 168 126c0 81 -61 127 -168 127h-148v-253z" />
    <glyph glyph-name="uni0405" unicode="&#x405;" horiz-adv-x="602" 
d="M323 -15c-171 0 -273 87 -288 247l82 14c14 -124 80 -183 207 -183c97 0 161 45 161 113c0 71 -47 110 -193 156c-167 55 -223 104 -223 198c0 109 92 185 224 185s231 -79 254 -204l-81 -17c-22 93 -83 143 -174 143c-85 0 -141 -42 -141 -107c0 -54 40 -83 168 -123
c182 -59 248 -120 248 -230c0 -114 -99 -192 -244 -192z" />
    <glyph glyph-name="uni0404" unicode="&#x404;" 
d="M525 259l85 -11c-13 -163 -115 -263 -270 -263c-179 0 -295 143 -295 365c0 219 118 365 295 365c144 0 248 -95 268 -244l-82 -14c-20 117 -84 180 -186 180c-119 0 -196 -90 -210 -239h248v-74h-249c7 -163 86 -261 211 -261c108 0 172 68 185 196z" />
    <glyph glyph-name="uni042D" unicode="&#x42d;" 
d="M310 715c177 0 295 -146 295 -365c0 -222 -116 -365 -295 -365c-154 0 -256 100 -270 263l85 11c13 -128 77 -196 185 -196c125 0 204 98 211 261h-249v74h248c-14 149 -91 239 -210 239c-102 0 -166 -63 -186 -180l-82 14c20 149 124 244 268 244z" />
    <glyph glyph-name="uni0406" unicode="&#x406;" horiz-adv-x="254" 
d="M168 0h-82v700h82v-700z" />
    <glyph glyph-name="uni0407" unicode="&#x407;" horiz-adv-x="254" 
d="M85 750h-96v94h96v-94zM265 750h-96v94h96v-94zM168 0h-82v700h82v-700z" />
    <glyph glyph-name="uni0408" unicode="&#x408;" horiz-adv-x="522" 
d="M235 -15c-123 0 -195 69 -205 208l80 9c8 -96 45 -139 125 -139s123 56 123 159v478h83v-482c0 -149 -85 -233 -206 -233z" />
    <glyph glyph-name="uni040B" unicode="&#x40b;" horiz-adv-x="775" 
d="M474 413c139 0 230 -81 230 -214v-199h-83v190c0 101 -51 150 -157 150c-54 0 -100 -12 -148 -36v-304h-83v622h-198v78h519v-78h-238v-240c55 21 105 31 158 31z" />
    <glyph glyph-name="uni042E" unicode="&#x42e;" horiz-adv-x="886" 
d="M552 715c173 0 289 -146 289 -365s-116 -365 -289 -365c-167 0 -281 135 -289 339h-95v-324h-82v700h82v-304h96c15 192 127 319 288 319zM552 63c127 0 206 110 206 287s-79 287 -206 287c-128 0 -207 -111 -207 -287s79 -287 207 -287z" />
    <glyph glyph-name="uni042F" unicode="&#x42f;" horiz-adv-x="609" 
d="M269 700h255v-700h-83v284h-130l-163 -284h-97l170 287v2c-120 15 -186 92 -186 204c0 129 88 207 234 207zM275 360h166v262h-166c-103 0 -157 -44 -157 -129c0 -86 55 -133 157 -133z" />
    <glyph glyph-name="uni0402" unicode="&#x402;" horiz-adv-x="799" 
d="M478 413c151 0 250 -95 250 -220s-91 -208 -246 -208c-35 0 -59 2 -96 6l8 75c31 -4 48 -5 84 -5c105 0 167 46 167 132s-70 145 -172 145c-55 0 -101 -12 -157 -37v-301h-83v622h-198v78h519v-78h-238v-242c50 21 103 33 162 33z" />
    <glyph glyph-name="uni0492" unicode="&#x492;" horiz-adv-x="579" 
d="M553 700v-78h-345v-231h186v-68h-186v-323h-82v323h-96v68h96v309h427z" />
    <glyph glyph-name="uni049A" unicode="&#x49a;" horiz-adv-x="625" 
d="M298 369l221 -297h101v-237h-80v165h-68l-241 334h-63v-334h-82v700h82v-294h70l236 294h98z" />
    <glyph glyph-name="uni04A2" unicode="&#x4a2;" horiz-adv-x="662" 
d="M566 700v-628h96v-237h-80v165h-98v324h-316v-324h-82v700h82v-304h316v304h82z" />
    <glyph glyph-name="uni04AE" unicode="&#x4ae;" horiz-adv-x="573" 
d="M328 0h-83v292l-245 408h96l189 -327h2l190 327h96l-245 -408v-292z" />
    <glyph glyph-name="uni04B0" unicode="&#x4b0;" horiz-adv-x="573" 
d="M477 700h96l-245 -408h166v-68h-166v-224h-83v224h-166v68h166l-245 408h96l189 -327h2z" />
    <glyph glyph-name="uni04BA" unicode="&#x4ba;" horiz-adv-x="607" 
d="M326 423c140 0 231 -81 231 -214v-209h-83v200c0 101 -51 150 -158 150c-49 0 -97 -8 -148 -38v-312h-82v700h82v-310c49 24 110 33 158 33z" />
    <glyph glyph-name="uni04C0" unicode="&#x4c0;" horiz-adv-x="254" 
d="M168 0h-82v700h82v-700z" />
    <glyph glyph-name="uni04D8" unicode="&#x4d8;" horiz-adv-x="672" 
d="M335 -15c-176 0 -290 140 -290 365v30h497c-4 159 -84 257 -207 257c-91 0 -158 -51 -192 -151l-77 27c49 132 144 202 269 202c177 0 292 -144 292 -366c0 -220 -115 -364 -292 -364zM335 63c120 0 197 91 207 244h-410c5 -155 84 -244 203 -244z" />
    <glyph glyph-name="uni04E2" unicode="&#x4e2;" horiz-adv-x="672" 
d="M470 760h-267v63h267v-63zM586 700v-700h-83v550h-2l-338 -550h-77v700h82v-550h2l338 550h78z" />
    <glyph glyph-name="uni04E8" unicode="&#x4e8;" horiz-adv-x="680" 
d="M340 715c177 0 295 -146 295 -365s-118 -365 -295 -365s-295 146 -295 365s118 365 295 365zM340 637c-121 0 -203 -94 -212 -247h424c-9 153 -91 247 -212 247zM340 63c123 0 206 96 212 254h-424c6 -158 89 -254 212 -254z" />
    <glyph glyph-name="uni0430" unicode="&#x430;" horiz-adv-x="510" 
d="M220 -15c-107 0 -174 58 -174 150c0 90 53 136 186 168c102 25 135 47 135 90c0 49 -43 81 -109 81c-70 0 -119 -43 -133 -114l-79 15c18 104 101 170 212 170c119 0 191 -66 191 -172v-373h-73v56h-2c-32 -44 -90 -71 -154 -71zM226 58c85 0 145 51 145 121v119h-2
c-11 -26 -45 -44 -116 -62c-93 -24 -129 -50 -129 -96c0 -53 36 -82 102 -82z" />
    <glyph glyph-name="uni0431" unicode="&#x431;" horiz-adv-x="596" 
d="M313 505c141 0 238 -96 238 -259c0 -159 -101 -261 -250 -261c-154 0 -256 110 -255 281c0 300 76 415 290 444c80 11 122 21 166 40l28 -67c-45 -21 -86 -31 -180 -44c-139 -19 -194 -68 -217 -209h1c44 49 108 75 179 75zM301 58c105 0 172 71 172 190
c0 120 -64 188 -168 188c-108 0 -176 -69 -176 -188c0 -117 69 -190 172 -190z" />
    <glyph glyph-name="uni0432" unicode="&#x432;" horiz-adv-x="520" 
d="M273 0h-207v530h222c105 0 174 -56 174 -139c0 -48 -26 -87 -71 -105v-2c55 -17 94 -63 94 -124c0 -106 -74 -160 -212 -160zM144 459v-151h130c72 0 110 27 110 77c0 48 -38 74 -109 74h-131zM144 244v-173h127c75 0 136 17 136 89c0 66 -57 84 -134 84h-129z" />
    <glyph glyph-name="uni0433" unicode="&#x433;" horiz-adv-x="425" 
d="M144 0h-78v530h334v-73h-256v-457z" />
    <glyph glyph-name="uni0453" unicode="&#x453;" horiz-adv-x="425" 
d="M254 590h-70l74 116h98zM144 0h-78v530h334v-73h-256v-457z" />
    <glyph glyph-name="uni0491" unicode="&#x491;" horiz-adv-x="429" 
d="M326 530v110h78v-183h-260v-457h-78v530h260z" />
    <glyph glyph-name="uni0434" unicode="&#x434;" horiz-adv-x="562" 
d="M477 530v-458h75v-189h-75v117h-397v-117h-75v189h31c60 19 73 66 79 232l8 226h354zM195 458l-5 -158c-4 -114 -8 -188 -50 -228h259v386h-204z" />
    <glyph glyph-name="uni0435" unicode="&#x435;" horiz-adv-x="573" 
d="M291 -15c-147 0 -245 113 -245 280s99 280 245 280c143 0 237 -106 237 -263v-40h-403c2 -101 66 -186 164 -186c75 0 117 28 162 106l65 -39c-46 -91 -123 -138 -225 -138zM127 305h322c-3 95 -64 169 -158 169c-92 0 -162 -80 -164 -169z" />
    <glyph glyph-name="uni0450" unicode="&#x450;" horiz-adv-x="573" 
d="M340 605h-70l-102 116h98zM291 -15c-147 0 -245 113 -245 280s99 280 245 280c143 0 237 -106 237 -263v-40h-403c2 -101 66 -186 164 -186c75 0 117 28 162 106l65 -39c-46 -91 -123 -138 -225 -138zM127 305h322c-3 95 -64 169 -158 169c-92 0 -162 -80 -164 -169z" />
    <glyph glyph-name="uni0451" unicode="&#x451;" horiz-adv-x="573" 
d="M249 595h-96v94h96v-94zM429 595h-96v94h96v-94zM291 -15c-147 0 -245 113 -245 280s99 280 245 280c143 0 237 -106 237 -263v-40h-403c2 -101 66 -186 164 -186c75 0 117 28 162 106l65 -39c-46 -91 -123 -138 -225 -138zM127 305h322c-3 95 -64 169 -158 169
c-92 0 -162 -80 -164 -169z" />
    <glyph glyph-name="uni0436" unicode="&#x436;" horiz-adv-x="665" 
d="M660 0h-93l-162 249h-34v-249h-76v249h-35l-162 -249h-93l191 285l-186 245h91l156 -213h38v213h76v-213h37l156 213h91l-186 -245z" />
    <glyph glyph-name="uni0437" unicode="&#x437;" horiz-adv-x="485" 
d="M243 -15c-125 0 -204 72 -218 191l76 13c12 -87 58 -134 142 -134c78 0 119 42 119 99s-43 88 -128 88h-69v62h66c67 0 116 34 116 86c0 49 -37 85 -106 85s-117 -39 -127 -97l-76 12c15 96 98 155 203 155c111 0 184 -62 184 -147c0 -56 -32 -94 -75 -117v-1
c52 -19 90 -72 90 -130c0 -93 -74 -165 -197 -165z" />
    <glyph glyph-name="uni0438" unicode="&#x438;" horiz-adv-x="537" 
d="M471 530v-530h-78v406h-1l-241 -406h-86v530h78v-406h2l240 406h86z" />
    <glyph glyph-name="uni0439" unicode="&#x439;" horiz-adv-x="537" 
d="M268 580c-86 0 -131 47 -131 125h61c4 -48 21 -77 70 -77s66 29 70 77h61c0 -78 -45 -125 -131 -125zM471 530v-530h-78v406h-1l-241 -406h-86v530h78v-406h2l240 406h86z" />
    <glyph glyph-name="uni045D" unicode="&#x45d;" horiz-adv-x="537" 
d="M317 590h-70l-102 116h98zM471 530v-530h-78v406h-1l-241 -406h-86v530h78v-406h2l240 406h86z" />
    <glyph glyph-name="uni043A" unicode="&#x43a;" horiz-adv-x="474" 
d="M469 0h-95l-191 249h-39v-249h-78v530h78v-213h45l182 213h93l-214 -247z" />
    <glyph glyph-name="uni045C" unicode="&#x45c;" horiz-adv-x="474" 
d="M276 706h98l-102 -116h-70zM469 0h-95l-191 249h-39v-249h-78v530h78v-213h45l182 213h93l-214 -247z" />
    <glyph glyph-name="uni043B" unicode="&#x43b;" horiz-adv-x="538" 
d="M129 304l8 226h336v-530h-78v458h-186l-5 -158c-7 -211 -34 -282 -167 -305l-17 70c94 16 103 66 109 239z" />
    <glyph glyph-name="uni043C" unicode="&#x43c;" horiz-adv-x="679" 
d="M143 0h-78v530h97l177 -403h2l177 403h96v-530h-78v396h-1l-179 -396h-33l-178 396h-2v-396z" />
    <glyph glyph-name="uni043D" unicode="&#x43d;" horiz-adv-x="540" 
d="M144 0h-78v530h78v-223h252v223h78v-530h-78v234h-252v-234z" />
    <glyph glyph-name="uni043E" unicode="&#x43e;" horiz-adv-x="590" 
d="M295 -15c-150 0 -249 113 -249 280s99 280 249 280s250 -113 250 -280s-100 -280 -250 -280zM295 58c105 0 172 81 172 207s-67 207 -172 207s-171 -81 -171 -207s66 -207 171 -207z" />
    <glyph glyph-name="uni043F" unicode="&#x43f;" horiz-adv-x="540" 
d="M474 530v-530h-78v457h-252v-457h-78v530h408z" />
    <glyph glyph-name="uni0440" unicode="&#x440;" horiz-adv-x="586" 
d="M144 -225h-78v755h78v-56h2c34 42 90 71 155 71c140 0 239 -114 239 -280s-99 -280 -237 -280c-66 0 -124 28 -157 68h-2v-278zM297 58c100 0 165 82 165 207s-65 207 -161 207c-88 0 -157 -69 -157 -155v-103c0 -87 69 -156 153 -156z" />
    <glyph glyph-name="uni0441" unicode="&#x441;" horiz-adv-x="563" 
d="M291 -15c-145 0 -245 113 -245 280s100 280 245 280c122 0 211 -75 231 -193l-76 -16c-15 87 -72 136 -155 136c-100 0 -167 -82 -167 -207s67 -207 167 -207c83 0 140 49 155 136l76 -16c-20 -118 -109 -193 -231 -193z" />
    <glyph glyph-name="uni0442" unicode="&#x442;" horiz-adv-x="471" 
d="M274 0h-78v457h-171v73h421v-73h-172v-457z" />
    <glyph glyph-name="uni0443" unicode="&#x443;" horiz-adv-x="511" 
d="M183 -225h-81l114 268l-206 487h84l161 -395h2l161 395h83z" />
    <glyph glyph-name="uni045E" unicode="&#x45e;" horiz-adv-x="511" 
d="M256 580c-86 0 -131 47 -131 125h61c4 -48 21 -77 70 -77s66 29 70 77h61c0 -78 -45 -125 -131 -125zM183 -225h-81l114 268l-206 487h84l161 -395h2l161 395h83z" />
    <glyph glyph-name="uni0444" unicode="&#x444;" horiz-adv-x="692" 
d="M382 700v-160c150 -6 264 -113 264 -275s-114 -269 -264 -275v-215h-75v215c-150 6 -261 113 -261 275s111 269 261 275v160h75zM307 59v412c-107 -3 -183 -84 -183 -206s76 -203 183 -206zM382 471v-412c103 1 186 77 186 206s-83 205 -186 206z" />
    <glyph glyph-name="uni0445" unicode="&#x445;" horiz-adv-x="469" 
d="M97 0h-92l182 270l-176 260h92l130 -199h2l131 199h92l-177 -260l183 -270h-92l-137 209h-2z" />
    <glyph glyph-name="uni0447" unicode="&#x447;" horiz-adv-x="508" 
d="M364 296v234h78v-530h-78v223c-42 -17 -87 -25 -128 -25c-111 0 -185 60 -185 163v169h78v-161c0 -70 42 -101 119 -101c37 0 77 6 116 28z" />
    <glyph glyph-name="uni0446" unicode="&#x446;" horiz-adv-x="555" 
d="M469 530v-457h76v-189h-77v116h-402v530h78v-457h247v457h78z" />
    <glyph glyph-name="uni0448" unicode="&#x448;" horiz-adv-x="774" 
d="M631 69v461h78v-530h-643v530h78v-461h205v461h76v-461h206z" />
    <glyph glyph-name="uni0449" unicode="&#x449;" horiz-adv-x="794" 
d="M709 530v-457h75v-189h-77v116h-641v530h78v-461h205v461h76v-461h206v461h78z" />
    <glyph glyph-name="uni045F" unicode="&#x45f;" horiz-adv-x="535" 
d="M391 530h78v-530h-163v-116h-76v116h-164v530h78v-457h247v457z" />
    <glyph glyph-name="uni044C" unicode="&#x44c;" horiz-adv-x="524" 
d="M144 345h133c118 0 201 -59 201 -171c0 -115 -83 -174 -201 -174h-211v530h78v-185zM144 72h131c86 0 125 36 125 102s-39 101 -125 101h-131v-203z" />
    <glyph glyph-name="uni044A" unicode="&#x44a;" horiz-adv-x="613" 
d="M233 345h133c118 0 201 -59 201 -171c0 -115 -83 -174 -201 -174h-211v458h-130v72h208v-185zM233 72h131c86 0 125 36 125 102s-39 101 -125 101h-131v-203z" />
    <glyph glyph-name="uni044B" unicode="&#x44b;" horiz-adv-x="702" 
d="M144 345h133c118 0 201 -59 201 -171c0 -115 -83 -174 -201 -174h-211v530h78v-185zM559 0v530h78v-530h-78zM144 72h131c86 0 125 36 125 102s-39 101 -125 101h-131v-203z" />
    <glyph glyph-name="uni0459" unicode="&#x459;" horiz-adv-x="833" 
d="M463 345h123c118 0 201 -59 201 -171c0 -115 -83 -174 -201 -174h-201v458h-176l-5 -158c-7 -211 -34 -282 -167 -305l-17 70c94 16 103 66 109 239l8 226h326v-185zM463 72h121c86 0 125 36 125 102s-39 101 -125 101h-121v-203z" />
    <glyph glyph-name="uni045A" unicode="&#x45a;" horiz-adv-x="844" 
d="M474 325h131c118 0 194 -59 194 -161c0 -105 -76 -164 -194 -164h-209v253h-252v-253h-78v530h78v-205h252v205h78v-205zM474 72h129c86 0 118 36 118 92s-32 91 -118 91h-129v-183z" />
    <glyph glyph-name="uni0455" unicode="&#x455;" horiz-adv-x="502" 
d="M271 -15c-137 0 -223 71 -235 196l76 14c16 -97 62 -137 159 -137c72 0 117 36 117 84c0 42 -32 65 -146 99c-133 40 -181 78 -181 152c0 84 77 152 180 152c111 0 190 -61 210 -158l-76 -17c-18 67 -62 102 -134 102c-59 0 -102 -35 -102 -76c0 -37 32 -56 129 -86
c148 -46 199 -88 199 -168c0 -91 -78 -157 -196 -157z" />
    <glyph glyph-name="uni0454" unicode="&#x454;" horiz-adv-x="563" 
d="M291 58c83 0 141 49 156 136l75 -16c-20 -118 -109 -193 -231 -193c-145 0 -245 113 -245 280s100 280 245 280c122 0 211 -75 231 -193l-75 -16c-15 87 -73 136 -156 136c-92 0 -155 -65 -166 -167h229v-63h-231c6 -112 71 -184 168 -184z" />
    <glyph glyph-name="uni044D" unicode="&#x44d;" horiz-adv-x="563" 
d="M272 545c145 0 246 -113 246 -280s-101 -280 -246 -280c-122 0 -211 75 -231 193l75 16c15 -87 73 -136 156 -136c97 0 162 72 168 184h-231v63h229c-11 102 -74 167 -166 167c-83 0 -141 -49 -156 -136l-75 16c20 118 109 193 231 193z" />
    <glyph glyph-name="uni0456" unicode="&#x456;" horiz-adv-x="209" 
d="M149 623h-90v87h90v-87zM144 0h-78v530h78v-530z" />
    <glyph glyph-name="uni0457" unicode="&#x457;" horiz-adv-x="209" 
d="M80 623h-80v87h80v-87zM209 623h-79v87h79v-87zM144 0h-78v530h78v-530z" />
    <glyph glyph-name="uni0458" unicode="&#x458;" horiz-adv-x="220" 
d="M160 623h-90v87h90v-87zM37 -174h-47v73h43c29 0 44 13 44 39v592h78v-596c0 -77 -37 -108 -118 -108z" />
    <glyph glyph-name="uni045B" unicode="&#x45b;" horiz-adv-x="555" 
d="M293 545c122 0 201 -79 201 -202v-343h-78v333c0 86 -50 139 -132 139c-84 0 -140 -57 -140 -139v-333h-78v606h-61v59h61v65h78v-65h149v-59h-149v-125h2c30 38 90 64 147 64z" />
    <glyph glyph-name="uni044E" unicode="&#x44e;" horiz-adv-x="742" 
d="M451 545c146 0 245 -113 245 -280s-99 -280 -245 -280c-138 0 -234 101 -244 253h-63v-238h-78v530h78v-223h64c15 144 110 238 243 238zM451 58c101 0 167 81 167 207s-66 207 -167 207c-102 0 -167 -82 -167 -207s65 -207 167 -207z" />
    <glyph glyph-name="uni044F" unicode="&#x44f;" horiz-adv-x="518" 
d="M232 530h220v-530h-78v206h-104l-132 -206h-86l136 209v2c-90 14 -142 74 -142 158c0 100 70 161 186 161zM241 276h133v183h-133c-77 0 -117 -31 -117 -91c0 -61 40 -92 117 -92z" />
    <glyph glyph-name="uni0452" unicode="&#x452;" horiz-adv-x="555" 
d="M293 545c122 0 201 -79 201 -202v-411c0 -75 -36 -106 -121 -106h-43v73h43c29 0 43 13 43 39v395c0 86 -50 139 -132 139c-84 0 -140 -57 -140 -139v-333h-78v606h-61v59h61v65h78v-65h149v-59h-149v-125h2c30 38 90 64 147 64z" />
    <glyph glyph-name="uni0493" unicode="&#x493;" horiz-adv-x="415" 
d="M399 530v-73h-256v-167h161v-63h-161v-227h-78v227h-60v63h60v240h334z" />
    <glyph glyph-name="uni049B" unicode="&#x49b;" horiz-adv-x="485" 
d="M250 283l163 -210h67v-189h-73v116h-33l-191 249h-39v-249h-78v530h78v-213h45l182 213h93z" />
    <glyph glyph-name="uni04A3" unicode="&#x4a3;" horiz-adv-x="560" 
d="M474 530v-457h76v-189h-77v116h-77v234h-252v-234h-78v530h78v-223h252v223h78z" />
    <glyph glyph-name="uni04AF" unicode="&#x4af;" horiz-adv-x="536" 
d="M442 530h84l-219 -530v-225h-78v225l-219 530h84l173 -434h2z" />
    <glyph glyph-name="uni04B1" unicode="&#x4b1;" horiz-adv-x="536" 
d="M442 530h84l-219 -530h148v-68h-148v-157h-78v157h-148v68h148l-219 530h84l173 -434h2z" />
    <glyph glyph-name="uni04BB" unicode="&#x4bb;" horiz-adv-x="555" 
d="M144 0h-78v730h78v-249h2c30 38 90 64 147 64c122 0 201 -79 201 -202v-343h-78v333c0 86 -50 139 -132 139c-84 0 -140 -57 -140 -139v-333z" />
    <glyph glyph-name="uni04CF" unicode="&#x4cf;" horiz-adv-x="209" 
d="M144 0h-78v730h78v-730z" />
    <glyph glyph-name="uni04D9" unicode="&#x4d9;" horiz-adv-x="573" 
d="M282 -15c-143 0 -236 106 -236 263v40h402c-2 101 -66 186 -164 186c-75 0 -116 -28 -162 -106l-64 36c45 91 122 141 224 141c147 0 246 -113 246 -280s-100 -280 -246 -280zM282 56c92 0 163 80 164 169h-321c2 -95 63 -169 157 -169z" />
    <glyph glyph-name="uni04E3" unicode="&#x4e3;" horiz-adv-x="537" 
d="M402 590h-267v63h267v-63zM471 530v-530h-78v406h-1l-241 -406h-86v530h78v-406h2l240 406h86z" />
    <glyph glyph-name="uni04E9" unicode="&#x4e9;" horiz-adv-x="590" 
d="M295 545c150 0 250 -113 250 -280s-100 -280 -250 -280s-249 113 -249 280s99 280 249 280zM295 472c-96 0 -165 -67 -170 -174h341c-5 107 -75 174 -171 174zM295 58c96 0 168 68 172 177h-342c3 -109 74 -177 170 -177z" />
    <glyph glyph-name="uni0394" unicode="&#x394;" horiz-adv-x="594" 
d="M258 700h80l251 -700h-584zM296 587l-180 -514h362l-180 514h-2z" />
    <glyph glyph-name="uni03A9" unicode="&#x3a9;" horiz-adv-x="680" 
d="M491 70v-2h130v-68h-245v66c99 20 176 148 176 294c0 169 -83 277 -212 277s-212 -108 -212 -277c0 -146 77 -274 175 -294v-66h-246v68h129v2c-86 53 -141 165 -141 290c0 211 120 355 295 355s295 -144 295 -355c0 -126 -55 -237 -144 -290z" />
    <glyph glyph-name="uni03BC" unicode="&#x3bc;" horiz-adv-x="553" 
d="M409 197v333h78v-530h-76v49h-2c-30 -39 -84 -64 -142 -64c-51 0 -92 14 -121 41h-2v-251h-78v755h78v-333c0 -94 42 -139 132 -139c81 0 133 56 133 139z" />
    <glyph glyph-name="pi" unicode="&#x3c0;" horiz-adv-x="646" 
d="M596 530v-73h-107v-326c0 -44 14 -58 58 -58h44v-73h-59c-83 0 -121 38 -121 120v337h-209v-457h-78v457h-104v73h576z" />
    <glyph glyph-name="zero" unicode="0" horiz-adv-x="622" 
d="M311 -14c-157 0 -266 132 -266 350s109 350 266 350s266 -132 266 -350s-109 -350 -266 -350zM311 59c113 0 188 101 188 277s-75 277 -188 277s-188 -101 -188 -277s75 -277 188 -277z" />
    <glyph glyph-name="one" unicode="1" horiz-adv-x="365" 
d="M264 0h-78v586l-151 -98v80l160 104h69v-672z" />
    <glyph glyph-name="two" unicode="2" horiz-adv-x="573" 
d="M162 160c-12 -22 -16 -48 -17 -87h364v-73h-447v63c0 51 6 92 28 131c26 45 70 77 171 129c139 72 179 110 179 178c0 65 -60 116 -142 116c-100 0 -159 -64 -167 -168l-75 7c6 129 97 231 243 231c125 0 219 -82 219 -186c0 -97 -50 -152 -197 -226
c-117 -59 -143 -83 -159 -115z" />
    <glyph glyph-name="three" unicode="3" horiz-adv-x="569" 
d="M292 -14c-142 0 -231 86 -246 237l76 13c13 -118 69 -177 170 -177c87 0 144 53 144 131c0 91 -52 134 -158 134h-48v69h48c80 0 141 48 141 109c0 69 -49 115 -129 115c-82 0 -140 -51 -151 -130l-74 11c15 113 105 189 225 189c122 0 206 -73 206 -179
c0 -57 -37 -111 -103 -142v-2c74 -27 121 -85 121 -174c0 -122 -89 -204 -222 -204z" />
    <glyph glyph-name="four" unicode="4" horiz-adv-x="541" 
d="M425 0h-78v137h-337v68l296 467h119v-466h86v-69h-86v-137zM345 610l-256 -404h258v404h-2z" />
    <glyph glyph-name="five" unicode="5" horiz-adv-x="569" 
d="M290 -14c-133 0 -224 70 -250 191l78 20c19 -91 75 -138 172 -138c98 0 166 66 166 166c0 93 -65 163 -166 163c-69 0 -120 -30 -162 -73l-71 18l64 339h353v-73h-292l-37 -192l2 -1c40 31 91 50 155 50c134 0 232 -98 232 -231c0 -143 -101 -239 -244 -239z" />
    <glyph glyph-name="six" unicode="6" horiz-adv-x="593" 
d="M329 447c131 0 229 -97 229 -230c0 -141 -105 -232 -237 -232c-176 0 -276 133 -276 341c0 211 118 361 280 361c110 0 195 -63 222 -179l-74 -18c-24 88 -74 124 -148 124c-111 0 -194 -107 -199 -272h4c37 61 106 105 199 105zM321 58c85 0 159 58 159 159
c0 99 -67 162 -160 162c-101 0 -169 -70 -169 -162c0 -90 66 -159 170 -159z" />
    <glyph glyph-name="seven" unicode="7" horiz-adv-x="506" 
d="M182 0h-89l292 594v2h-370v76h460v-69z" />
    <glyph glyph-name="eight" unicode="8" horiz-adv-x="540" 
d="M270 -15c-148 0 -245 80 -245 202c0 80 44 142 125 180v2c-62 31 -91 78 -91 141c0 102 89 177 211 177s212 -75 212 -177c0 -63 -30 -110 -91 -141v-2c80 -38 124 -100 124 -180c0 -122 -97 -202 -245 -202zM270 397c79 0 134 44 134 108c0 69 -55 118 -134 118
s-133 -49 -133 -118c0 -65 54 -108 133 -108zM270 58c101 0 167 53 167 134c0 82 -67 136 -167 136s-167 -54 -167 -136c0 -81 66 -134 167 -134z" />
    <glyph glyph-name="nine" unicode="9" horiz-adv-x="570" 
d="M273 687c153 0 252 -106 252 -312c0 -271 -74 -390 -245 -390c-112 0 -190 68 -216 172l73 19c24 -83 75 -121 143 -121c107 0 160 74 165 258h-1c-33 -52 -93 -84 -175 -84c-145 0 -234 89 -234 230c0 133 101 228 238 228zM273 299c95 0 160 62 160 155
c0 96 -64 163 -160 163c-97 0 -160 -65 -160 -158c0 -99 63 -160 160 -160z" />
    <glyph glyph-name="zero.zero" horiz-adv-x="622" 
d="M311 686c157 0 266 -132 266 -350s-109 -350 -266 -350s-266 132 -266 350s109 350 266 350zM121 336c0 -90 20 -161 54 -209l220 467c-24 14 -53 22 -84 22c-114 0 -190 -102 -190 -280zM311 56c114 0 190 102 190 280c0 95 -21 168 -59 216l-222 -470
c27 -17 57 -26 91 -26z" />
    <glyph glyph-name="zero.case" horiz-adv-x="644" 
d="M322 -15c-162 0 -277 138 -277 365s113 365 277 365s277 -138 277 -365s-113 -365 -277 -365zM322 63c117 0 194 104 194 287s-77 287 -194 287s-194 -104 -194 -287s77 -287 194 -287z" />
    <glyph glyph-name="zero.zero.case" horiz-adv-x="644" 
d="M322 715c164 0 277 -138 277 -365s-113 -365 -277 -365c-162 0 -277 138 -277 365s113 365 277 365zM124 350c0 -98 22 -173 59 -223l232 490c-27 17 -58 26 -93 26c-119 0 -198 -106 -198 -293zM322 57c119 0 198 106 198 293c0 97 -21 172 -59 222l-232 -489
c27 -17 58 -26 93 -26z" />
    <glyph glyph-name="one.case" horiz-adv-x="375" 
d="M274 0h-83v609l-156 -101v84l166 108h73v-700z" />
    <glyph glyph-name="two.case" horiz-adv-x="598" 
d="M170 164c-10 -20 -15 -44 -16 -86h377v-78h-465v66c0 57 9 100 29 133c25 46 68 80 178 137c145 75 187 117 187 187c0 67 -61 114 -146 114c-106 0 -168 -61 -175 -170l-83 7c8 148 108 241 258 241c129 0 229 -84 229 -192c0 -103 -52 -164 -206 -242
c-117 -59 -149 -82 -167 -117z" />
    <glyph glyph-name="three.case" horiz-adv-x="592" 
d="M304 -15c-148 0 -241 90 -258 248l82 13c14 -123 73 -183 176 -183c91 0 150 53 150 135c0 95 -54 140 -165 140h-50v72h50c83 0 147 50 147 113c0 72 -50 116 -133 116c-87 0 -146 -50 -158 -132l-78 12c16 119 110 196 236 196c128 0 216 -75 216 -186
c0 -60 -42 -122 -99 -150v-2c69 -27 116 -93 116 -179c0 -127 -93 -213 -232 -213z" />
    <glyph glyph-name="four.case" horiz-adv-x="563" 
d="M443 0h-83v143h-350v72l308 485h125v-484h89v-73h-89v-143zM358 635l-266 -419h268v419h-2z" />
    <glyph glyph-name="five.case" horiz-adv-x="591" 
d="M300 -15c-139 0 -233 74 -260 200l81 20c21 -95 77 -142 179 -142c103 0 173 67 173 171c0 97 -67 169 -173 169c-72 0 -124 -29 -169 -74l-73 18l67 353h367v-78h-304l-38 -194l2 -1c42 31 94 48 161 48c140 0 243 -102 243 -241c0 -148 -106 -249 -256 -249z" />
    <glyph glyph-name="six.case" horiz-adv-x="615" 
d="M341 466c137 0 239 -102 239 -240c0 -147 -110 -241 -248 -241c-183 0 -287 137 -287 354c0 220 123 376 291 376c117 0 204 -65 233 -187l-78 -19c-25 94 -78 130 -154 130c-115 0 -200 -109 -207 -278h3c38 58 110 105 208 105zM332 61c88 0 167 59 167 165
c0 102 -70 168 -168 168c-106 0 -176 -73 -176 -168c0 -94 69 -165 177 -165z" />
    <glyph glyph-name="seven.case" horiz-adv-x="523" 
d="M189 0h-93l301 617v2h-382v81h477v-72z" />
    <glyph glyph-name="eight.case" horiz-adv-x="567" 
d="M284 -15c-157 0 -259 84 -259 210c0 88 49 155 131 188v2c-62 33 -92 81 -92 146c0 106 92 184 220 184c127 0 220 -78 220 -184c0 -64 -30 -112 -92 -146v-2c81 -33 130 -100 130 -188c0 -126 -102 -210 -258 -210zM284 414c82 0 138 45 138 112c0 68 -56 116 -138 116
c-83 0 -138 -48 -138 -116c0 -67 55 -112 138 -112zM284 65c106 0 173 52 173 135c0 84 -67 140 -173 140c-107 0 -174 -56 -174 -140c0 -83 67 -135 174 -135z" />
    <glyph glyph-name="nine.case" horiz-adv-x="590" 
d="M283 715c158 0 262 -108 262 -323c0 -284 -76 -407 -255 -407c-112 0 -196 65 -225 178l76 20c26 -87 79 -124 149 -124c111 0 163 73 170 258h-1c-36 -49 -98 -79 -180 -79c-151 0 -244 92 -244 240c0 138 105 237 248 237zM283 311c99 0 166 65 166 162
c0 100 -66 168 -166 168c-101 0 -167 -66 -167 -163c0 -103 65 -167 167 -167z" />
    <glyph glyph-name="zero.tf" 
d="M325 -15c-162 0 -277 138 -277 365s113 365 277 365s277 -138 277 -365s-113 -365 -277 -365zM325 63c117 0 194 104 194 287s-77 287 -194 287s-194 -104 -194 -287s77 -287 194 -287z" />
    <glyph glyph-name="zero.zero.tf" 
d="M325 715c164 0 277 -138 277 -365s-113 -365 -277 -365c-162 0 -277 138 -277 365s113 365 277 365zM127 350c0 -98 22 -173 59 -223l232 490c-27 17 -58 26 -93 26c-119 0 -198 -106 -198 -293zM325 57c119 0 198 106 198 293c0 97 -21 172 -59 222l-232 -489
c27 -17 58 -26 93 -26z" />
    <glyph glyph-name="one.tf" 
d="M372 700v-622h151v-78h-397v78h163v531l-156 -101v84l166 108h73z" />
    <glyph glyph-name="two.tf" 
d="M196 164c-10 -20 -15 -44 -16 -86h377v-78h-465v66c0 57 9 100 29 133c25 46 68 80 177 137c146 75 188 117 188 187c0 67 -61 114 -146 114c-106 0 -168 -61 -176 -170l-82 7c8 148 107 241 258 241c129 0 228 -84 228 -192c0 -103 -52 -164 -206 -242
c-116 -59 -149 -82 -166 -117z" />
    <glyph glyph-name="three.tf" 
d="M338 -15c-148 0 -241 90 -258 248l82 13c14 -123 73 -183 176 -183c91 0 150 53 150 135c0 95 -54 140 -165 140h-50v72h50c83 0 147 50 147 113c0 72 -50 116 -133 116c-87 0 -146 -50 -158 -132l-79 12c17 119 111 196 237 196c128 0 216 -75 216 -186
c0 -60 -42 -122 -99 -150v-2c69 -27 116 -93 116 -179c0 -127 -93 -213 -232 -213z" />
    <glyph glyph-name="four.tf" 
d="M496 0h-83v143h-350v72l308 485h125v-484h90v-73h-90v-143zM411 635l-265 -419h267v419h-2z" />
    <glyph glyph-name="five.tf" 
d="M326 -15c-139 0 -233 74 -259 200l81 20c20 -95 76 -142 178 -142c103 0 173 67 173 171c0 97 -67 169 -173 169c-71 0 -124 -29 -168 -74l-73 18l67 353h367v-78h-305l-38 -194l2 -1c43 31 94 48 161 48c141 0 243 -102 243 -241c0 -148 -105 -249 -256 -249z" />
    <glyph glyph-name="six.tf" 
d="M357 466c137 0 239 -102 239 -240c0 -147 -110 -241 -248 -241c-183 0 -287 137 -287 354c0 220 123 376 292 376c117 0 203 -65 232 -187l-78 -19c-25 94 -77 130 -154 130c-115 0 -200 -109 -207 -278h4c37 58 109 105 207 105zM348 61c88 0 167 59 167 165
c0 102 -70 168 -167 168c-107 0 -177 -73 -177 -168c0 -94 69 -165 177 -165z" />
    <glyph glyph-name="seven.tf" 
d="M270 0h-93l301 617v2h-382v81h477v-72z" />
    <glyph glyph-name="eight.tf" 
d="M326 -15c-157 0 -259 84 -259 210c0 88 49 155 131 188v2c-62 33 -92 81 -92 146c0 106 92 184 220 184c127 0 220 -78 220 -184c0 -64 -30 -112 -92 -146v-2c81 -33 130 -100 130 -188c0 -126 -102 -210 -258 -210zM326 414c82 0 138 45 138 112c0 68 -56 116 -138 116
c-83 0 -138 -48 -138 -116c0 -67 55 -112 138 -112zM326 65c106 0 173 52 173 135c0 84 -67 140 -173 140c-107 0 -174 -56 -174 -140c0 -83 67 -135 174 -135z" />
    <glyph glyph-name="nine.tf" 
d="M322 715c158 0 262 -108 262 -323c0 -284 -76 -407 -255 -407c-112 0 -196 65 -225 178l76 20c26 -87 79 -124 149 -124c111 0 163 73 171 258h-2c-36 -49 -98 -79 -180 -79c-151 0 -244 92 -244 240c0 138 105 237 248 237zM322 311c99 0 166 65 166 162
c0 100 -66 168 -166 168c-101 0 -167 -66 -167 -163c0 -103 65 -167 167 -167z" />
    <glyph glyph-name="uni2080" unicode="&#x2080;" horiz-adv-x="408" 
d="M204 -159c-108 0 -174 85 -174 219s66 219 174 219c107 0 174 -85 174 -219s-67 -219 -174 -219zM204 -96c67 0 104 56 104 156s-37 156 -104 156s-104 -56 -104 -156s37 -156 104 -156z" />
    <glyph glyph-name="uni2081" unicode="&#x2081;" horiz-adv-x="271" 
d="M200 -150h-70v345l-105 -63v73l109 65h66v-420z" />
    <glyph glyph-name="uni2082" unicode="&#x2082;" horiz-adv-x="372" 
d="M122 -40c-7 -10 -10 -19 -11 -47h229v-63h-305v52c0 41 7 71 25 92c20 23 51 43 113 69c76 33 99 55 99 91c0 37 -31 63 -78 63c-54 0 -91 -34 -94 -89l-70 5c4 88 70 146 164 146c86 0 148 -53 148 -125c0 -62 -29 -96 -122 -139c-74 -35 -89 -43 -98 -55z" />
    <glyph glyph-name="uni2083" unicode="&#x2083;" horiz-adv-x="370" 
d="M190 -159c-97 0 -157 54 -165 150l69 10c6 -63 39 -96 96 -96c50 0 81 26 81 69c0 44 -29 66 -85 66h-36v57h29c50 0 78 21 78 59c0 35 -29 60 -72 60c-46 0 -76 -27 -83 -70l-69 11c11 75 70 122 152 122s142 -48 142 -116c0 -35 -15 -61 -51 -87v-1
c43 -22 64 -57 64 -107c0 -76 -60 -127 -150 -127z" />
    <glyph glyph-name="uni2084" unicode="&#x2084;" horiz-adv-x="373" 
d="M303 -150h-71v78h-222v65l179 277h114v-278h55v-64h-55v-78zM231 221l-149 -229h150v229h-1z" />
    <glyph glyph-name="uni2085" unicode="&#x2085;" horiz-adv-x="388" 
d="M196 -159c-85 0 -150 46 -166 117l66 21c11 -47 46 -75 100 -75c53 0 92 37 92 86c0 51 -37 85 -92 85c-36 0 -69 -15 -93 -41l-64 18l41 218h236v-64h-183l-18 -98l1 -1c26 17 55 25 88 25c91 0 154 -58 154 -141c0 -87 -68 -150 -162 -150z" />
    <glyph glyph-name="uni2086" unicode="&#x2086;" horiz-adv-x="398" 
d="M216 131c90 0 152 -57 152 -143c0 -89 -66 -148 -160 -148c-116 0 -178 82 -178 217c0 134 74 222 181 222c78 0 130 -40 148 -106l-66 -18c-12 40 -39 61 -82 61c-60 0 -101 -47 -106 -132h2c25 30 65 47 109 47zM208 -96c52 0 90 32 90 86c0 53 -35 84 -87 84
c-50 0 -92 -31 -92 -84c0 -50 29 -86 89 -86z" />
    <glyph glyph-name="uni2087" unicode="&#x2087;" horiz-adv-x="306" 
d="M130 -150h-79l171 355v1h-222v64h301v-59z" />
    <glyph glyph-name="uni2088" unicode="&#x2088;" horiz-adv-x="395" 
d="M198 -159c-103 0 -168 49 -168 127c0 52 29 91 76 114v1c-32 17 -53 46 -53 82c0 66 59 114 145 114c85 0 144 -48 144 -114c0 -36 -20 -65 -52 -82v-1c47 -23 75 -62 75 -114c0 -78 -65 -127 -167 -127zM198 103c49 0 80 24 80 59s-33 59 -80 59c-46 0 -78 -24 -78 -59
s30 -59 78 -59zM198 -96c60 0 97 28 97 72c0 43 -40 73 -97 73c-58 0 -98 -30 -98 -73c0 -44 38 -72 98 -72z" />
    <glyph glyph-name="uni2089" unicode="&#x2089;" horiz-adv-x="390" 
d="M188 279c108 0 172 -76 172 -206c0 -155 -55 -232 -165 -232c-81 0 -136 42 -152 110l68 17c10 -44 36 -64 84 -64c57 0 91 46 93 127c-22 -24 -57 -38 -100 -38c-95 0 -158 56 -158 141c0 86 64 145 158 145zM100 134c0 -49 35 -80 90 -80s89 30 89 81
c0 48 -38 81 -91 81c-54 0 -88 -32 -88 -82z" />
    <glyph glyph-name="zero.dnom" horiz-adv-x="408" 
d="M204 -9c-108 0 -174 85 -174 219s66 219 174 219c107 0 174 -85 174 -219s-67 -219 -174 -219zM204 54c67 0 104 56 104 156s-37 156 -104 156s-104 -56 -104 -156s37 -156 104 -156z" />
    <glyph glyph-name="one.dnom" horiz-adv-x="271" 
d="M200 0h-70v345l-105 -63v73l109 65h66v-420z" />
    <glyph glyph-name="two.dnom" horiz-adv-x="372" 
d="M122 110c-7 -10 -10 -19 -11 -47h229v-63h-305v52c0 41 7 71 25 92c20 23 51 43 113 69c76 33 99 55 99 91c0 37 -31 63 -78 63c-54 0 -91 -34 -94 -89l-70 5c4 88 70 146 164 146c86 0 148 -53 148 -125c0 -62 -29 -96 -122 -139c-74 -35 -89 -43 -98 -55z" />
    <glyph glyph-name="three.dnom" horiz-adv-x="370" 
d="M190 -9c-97 0 -157 54 -165 150l69 10c6 -63 39 -96 96 -96c50 0 81 26 81 69c0 44 -29 66 -85 66h-36v57h29c50 0 78 21 78 59c0 35 -29 60 -72 60c-46 0 -76 -27 -83 -70l-69 11c11 75 70 122 152 122s142 -48 142 -116c0 -35 -15 -61 -51 -87v-1
c43 -22 64 -57 64 -107c0 -76 -60 -127 -150 -127z" />
    <glyph glyph-name="four.dnom" horiz-adv-x="373" 
d="M303 0h-71v78h-222v65l179 277h114v-278h55v-64h-55v-78zM231 371l-149 -229h150v229h-1z" />
    <glyph glyph-name="five.dnom" horiz-adv-x="388" 
d="M196 -9c-85 0 -150 46 -166 117l66 21c11 -47 46 -75 100 -75c53 0 92 37 92 86c0 51 -37 85 -92 85c-36 0 -69 -15 -93 -41l-64 18l41 218h236v-64h-183l-18 -98l1 -1c26 17 55 25 88 25c91 0 154 -58 154 -141c0 -87 -68 -150 -162 -150z" />
    <glyph glyph-name="six.dnom" horiz-adv-x="398" 
d="M216 281c90 0 152 -57 152 -143c0 -89 -66 -148 -160 -148c-116 0 -178 82 -178 217c0 134 74 222 181 222c78 0 130 -40 148 -106l-66 -18c-12 40 -39 61 -82 61c-60 0 -101 -47 -106 -132h2c25 30 65 47 109 47zM208 54c52 0 90 32 90 86c0 53 -35 84 -87 84
c-50 0 -92 -31 -92 -84c0 -50 29 -86 89 -86z" />
    <glyph glyph-name="seven.dnom" horiz-adv-x="306" 
d="M130 0h-79l171 355v1h-222v64h301v-59z" />
    <glyph glyph-name="eight.dnom" horiz-adv-x="395" 
d="M198 -9c-103 0 -168 49 -168 127c0 52 29 91 76 114v1c-32 17 -53 46 -53 82c0 66 59 114 145 114c85 0 144 -48 144 -114c0 -36 -20 -65 -52 -82v-1c47 -23 75 -62 75 -114c0 -78 -65 -127 -167 -127zM198 253c49 0 80 24 80 59s-33 59 -80 59c-46 0 -78 -24 -78 -59
s30 -59 78 -59zM198 54c60 0 97 28 97 73c0 42 -40 72 -97 72c-58 0 -98 -30 -98 -72c0 -45 38 -73 98 -73z" />
    <glyph glyph-name="nine.dnom" horiz-adv-x="390" 
d="M188 429c108 0 172 -76 172 -206c0 -155 -55 -232 -165 -232c-81 0 -136 42 -152 110l68 17c10 -44 36 -64 84 -64c57 0 91 46 93 127c-22 -24 -57 -38 -100 -38c-95 0 -158 56 -158 141c0 86 64 145 158 145zM100 284c0 -49 35 -80 90 -80s89 30 89 81
c0 48 -38 81 -91 81c-54 0 -88 -32 -88 -82z" />
    <glyph glyph-name="zero.numr" horiz-adv-x="408" 
d="M204 271c-108 0 -174 85 -174 219s66 219 174 219c107 0 174 -85 174 -219s-67 -219 -174 -219zM204 334c67 0 104 56 104 156s-37 156 -104 156s-104 -56 -104 -156s37 -156 104 -156z" />
    <glyph glyph-name="one.numr" horiz-adv-x="271" 
d="M200 280h-70v345l-105 -63v73l109 65h66v-420z" />
    <glyph glyph-name="two.numr" horiz-adv-x="372" 
d="M122 390c-7 -10 -10 -19 -11 -47h229v-63h-305v52c0 41 7 71 25 92c20 23 51 43 113 69c76 33 99 55 99 91c0 37 -31 63 -78 63c-54 0 -91 -34 -94 -89l-70 5c4 88 70 146 164 146c86 0 148 -53 148 -125c0 -62 -29 -96 -122 -139c-74 -35 -89 -43 -98 -55z" />
    <glyph glyph-name="three.numr" horiz-adv-x="370" 
d="M190 271c-97 0 -157 54 -165 150l69 10c6 -63 39 -96 96 -96c50 0 81 26 81 69c0 44 -29 66 -85 66h-36v57h29c50 0 78 21 78 59c0 35 -29 60 -72 60c-46 0 -76 -27 -83 -70l-69 11c11 75 70 122 152 122s142 -48 142 -116c0 -35 -15 -61 -51 -87v-1
c43 -22 64 -57 64 -107c0 -76 -60 -127 -150 -127z" />
    <glyph glyph-name="four.numr" horiz-adv-x="373" 
d="M303 280h-71v78h-222v65l179 277h114v-278h55v-64h-55v-78zM231 651l-149 -229h150v229h-1z" />
    <glyph glyph-name="five.numr" horiz-adv-x="388" 
d="M196 271c-85 0 -150 46 -166 117l66 21c11 -47 46 -75 100 -75c53 0 92 37 92 86c0 51 -37 85 -92 85c-36 0 -69 -15 -93 -41l-64 18l41 218h236v-64h-183l-18 -98l1 -1c26 17 55 25 88 25c91 0 154 -58 154 -141c0 -87 -68 -150 -162 -150z" />
    <glyph glyph-name="six.numr" horiz-adv-x="398" 
d="M216 561c90 0 152 -57 152 -143c0 -89 -66 -148 -160 -148c-116 0 -178 82 -178 217c0 134 74 222 181 222c78 0 130 -40 148 -106l-66 -18c-12 40 -39 61 -82 61c-60 0 -101 -47 -106 -132h2c25 30 65 47 109 47zM208 334c52 0 90 32 90 86c0 53 -35 84 -87 84
c-50 0 -92 -31 -92 -84c0 -50 29 -86 89 -86z" />
    <glyph glyph-name="seven.numr" horiz-adv-x="306" 
d="M130 280h-79l171 355v1h-222v64h301v-59z" />
    <glyph glyph-name="eight.numr" horiz-adv-x="395" 
d="M198 271c-103 0 -168 49 -168 127c0 52 29 91 76 114v1c-32 17 -53 46 -53 82c0 66 59 114 145 114c85 0 144 -48 144 -114c0 -36 -20 -65 -52 -82v-1c47 -23 75 -62 75 -114c0 -78 -65 -127 -167 -127zM198 533c49 0 80 24 80 59s-33 59 -80 59c-46 0 -78 -24 -78 -59
s30 -59 78 -59zM198 334c60 0 97 28 97 73c0 42 -40 72 -97 72c-58 0 -98 -30 -98 -72c0 -45 38 -73 98 -73z" />
    <glyph glyph-name="nine.numr" horiz-adv-x="390" 
d="M188 709c108 0 172 -76 172 -206c0 -155 -55 -232 -165 -232c-81 0 -136 42 -152 110l68 17c10 -44 36 -64 84 -64c57 0 91 46 93 127c-22 -24 -57 -38 -100 -38c-95 0 -158 56 -158 141c0 86 64 145 158 145zM100 564c0 -49 35 -80 90 -80s89 30 89 81
c0 48 -38 81 -91 81c-54 0 -88 -32 -88 -82z" />
    <glyph glyph-name="uni2070" unicode="&#x2070;" horiz-adv-x="408" 
d="M204 371c-108 0 -174 85 -174 219s66 219 174 219c107 0 174 -85 174 -219s-67 -219 -174 -219zM204 434c67 0 104 56 104 156s-37 156 -104 156s-104 -56 -104 -156s37 -156 104 -156z" />
    <glyph glyph-name="uni00B9" unicode="&#xb9;" horiz-adv-x="271" 
d="M200 380h-70v345l-105 -63v73l109 65h66v-420z" />
    <glyph glyph-name="uni00B2" unicode="&#xb2;" horiz-adv-x="372" 
d="M122 490c-7 -10 -10 -19 -11 -47h229v-63h-305v52c0 41 7 71 25 92c20 23 51 43 113 69c76 33 99 55 99 91c0 37 -31 63 -78 63c-54 0 -91 -34 -94 -89l-70 5c4 88 70 146 164 146c86 0 148 -53 148 -125c0 -62 -29 -96 -122 -139c-74 -35 -89 -43 -98 -55z" />
    <glyph glyph-name="uni00B3" unicode="&#xb3;" horiz-adv-x="370" 
d="M190 371c-97 0 -157 54 -165 150l69 10c6 -63 39 -96 96 -96c50 0 81 26 81 69c0 44 -29 66 -85 66h-36v57h29c50 0 78 21 78 59c0 35 -29 60 -72 60c-46 0 -76 -27 -83 -70l-69 11c11 75 70 122 152 122s142 -48 142 -116c0 -35 -15 -61 -51 -87v-1
c43 -22 64 -57 64 -107c0 -76 -60 -127 -150 -127z" />
    <glyph glyph-name="uni2074" unicode="&#x2074;" horiz-adv-x="373" 
d="M303 380h-71v78h-222v65l179 277h114v-278h55v-64h-55v-78zM231 751l-149 -229h150v229h-1z" />
    <glyph glyph-name="uni2075" unicode="&#x2075;" horiz-adv-x="388" 
d="M196 371c-85 0 -150 46 -166 117l66 21c11 -47 46 -75 100 -75c53 0 92 37 92 86c0 51 -37 85 -92 85c-36 0 -69 -15 -93 -41l-64 18l41 218h236v-64h-183l-18 -98l1 -1c26 17 55 25 88 25c91 0 154 -58 154 -141c0 -87 -68 -150 -162 -150z" />
    <glyph glyph-name="uni2076" unicode="&#x2076;" horiz-adv-x="398" 
d="M216 661c90 0 152 -57 152 -143c0 -89 -66 -148 -160 -148c-116 0 -178 82 -178 217c0 134 74 222 181 222c78 0 130 -40 148 -106l-66 -18c-12 40 -39 61 -82 61c-60 0 -101 -47 -106 -132h2c25 30 65 47 109 47zM208 434c52 0 90 32 90 86c0 53 -35 84 -87 84
c-50 0 -92 -31 -92 -84c0 -50 29 -86 89 -86z" />
    <glyph glyph-name="uni2077" unicode="&#x2077;" horiz-adv-x="306" 
d="M130 380h-79l171 355v1h-222v64h301v-59z" />
    <glyph glyph-name="uni2078" unicode="&#x2078;" horiz-adv-x="395" 
d="M198 371c-103 0 -168 49 -168 127c0 52 29 91 76 114v1c-32 17 -53 46 -53 82c0 66 59 114 145 114c85 0 144 -48 144 -114c0 -36 -20 -65 -52 -82v-1c47 -23 75 -62 75 -114c0 -78 -65 -127 -167 -127zM198 633c49 0 80 24 80 59s-33 59 -80 59c-46 0 -78 -24 -78 -59
s30 -59 78 -59zM198 434c60 0 97 28 97 73c0 42 -40 72 -97 72c-58 0 -98 -30 -98 -72c0 -45 38 -73 98 -73z" />
    <glyph glyph-name="uni2079" unicode="&#x2079;" horiz-adv-x="390" 
d="M188 809c108 0 172 -76 172 -206c0 -155 -55 -232 -165 -232c-81 0 -136 42 -152 110l68 17c10 -44 36 -64 84 -64c57 0 91 46 93 127c-22 -24 -57 -38 -100 -38c-95 0 -158 56 -158 141c0 86 64 145 158 145zM100 664c0 -49 35 -80 90 -80s89 30 89 81
c0 48 -38 81 -91 81c-54 0 -88 -32 -88 -82z" />
    <glyph glyph-name="fraction" unicode="&#x2044;" horiz-adv-x="206" 
d="M375 740l-486 -810l-58 33l488 812z" />
    <glyph glyph-name="onehalf" unicode="&#xbd;" horiz-adv-x="849" 
d="M102 -37l488 812l56 -35l-486 -810zM200 280h-70v345l-105 -63v73l109 65h66v-420zM599 110c-7 -10 -10 -19 -11 -47h229v-63h-305v52c0 41 7 71 25 92c20 23 51 43 113 69c76 33 99 55 99 91c0 37 -31 63 -78 63c-54 0 -91 -34 -94 -89l-70 5c4 88 70 146 164 146
c86 0 148 -53 148 -125c0 -62 -29 -96 -122 -139c-74 -35 -89 -43 -98 -55z" />
    <glyph glyph-name="uni2153" unicode="&#x2153;" horiz-adv-x="847" 
d="M646 740l-486 -810l-58 33l488 812zM200 280h-70v345l-105 -63v73l109 65h66v-420zM667 -9c-97 0 -157 54 -165 150l69 10c6 -63 39 -96 96 -96c50 0 81 26 81 69c0 44 -29 66 -85 66h-36v57h29c50 0 78 21 78 59c0 35 -29 60 -72 60c-46 0 -76 -27 -83 -70l-69 11
c11 75 70 122 152 122s142 -48 142 -116c0 -35 -15 -61 -51 -87v-1c43 -22 64 -57 64 -107c0 -76 -60 -127 -150 -127z" />
    <glyph glyph-name="uni2154" unicode="&#x2154;" horiz-adv-x="948" 
d="M203 -37l488 812l56 -35l-486 -810zM173 493c76 33 99 55 99 91c0 37 -31 63 -78 63c-54 0 -91 -34 -94 -89l-70 5c4 88 70 146 164 146c86 0 148 -53 148 -125c0 -62 -29 -96 -122 -139c-74 -35 -89 -43 -98 -55c-7 -10 -10 -19 -11 -47h229v-63h-305v52
c0 41 7 71 25 92c20 23 51 43 113 69zM854 226v-1c43 -22 64 -57 64 -107c0 -76 -60 -127 -150 -127c-97 0 -157 54 -165 150l69 10c6 -63 39 -96 96 -96c50 0 81 26 81 69c0 44 -29 66 -85 66h-36v57h29c50 0 78 21 78 59c0 35 -29 60 -72 60c-46 0 -76 -27 -83 -70l-69 11
c11 75 70 122 152 122s142 -48 142 -116c0 -35 -15 -61 -51 -87z" />
    <glyph glyph-name="onequarter" unicode="&#xbc;" horiz-adv-x="820" 
d="M646 740l-486 -810l-58 33l488 812zM200 280h-70v345l-105 -63v73l109 65h66v-420zM750 0h-71v78h-222v65l179 277h114v-278h55v-64h-55v-78zM678 371l-149 -229h150v229h-1z" />
    <glyph glyph-name="threequarters" unicode="&#xbe;" horiz-adv-x="919" 
d="M745 740l-486 -810l-58 33l488 812zM190 271c-97 0 -157 54 -165 150l69 10c6 -63 39 -96 96 -96c50 0 81 26 81 69c0 44 -29 66 -85 66h-36v57h29c50 0 78 21 78 59c0 35 -29 60 -72 60c-46 0 -76 -27 -83 -70l-69 11c11 75 70 122 152 122s142 -48 142 -116
c0 -35 -15 -61 -51 -87v-1c43 -22 64 -57 64 -107c0 -76 -60 -127 -150 -127zM849 0h-71v78h-222v65l179 277h114v-278h55v-64h-55v-78zM777 371l-149 -229h150v229h-1z" />
    <glyph glyph-name="oneeighth" unicode="&#x215b;" horiz-adv-x="873" 
d="M646 740l-486 -810l-58 33l488 812zM200 280h-70v345l-105 -63v73l109 65h66v-420zM675 -9c-103 0 -168 49 -168 127c0 52 29 91 76 114v1c-32 17 -53 46 -53 82c0 66 59 114 145 114c85 0 144 -48 144 -114c0 -36 -20 -65 -52 -82v-1c47 -23 75 -62 75 -114
c0 -78 -65 -127 -167 -127zM675 253c49 0 80 24 80 59s-33 59 -80 59c-46 0 -78 -24 -78 -59s30 -59 78 -59zM675 54c60 0 97 28 97 73c0 42 -40 72 -97 72c-58 0 -98 -30 -98 -72c0 -45 38 -73 98 -73z" />
    <glyph glyph-name="threeeighths" unicode="&#x215c;" horiz-adv-x="972" 
d="M745 740l-486 -810l-58 33l488 812zM190 271c-97 0 -157 54 -165 150l69 10c6 -63 39 -96 96 -96c50 0 81 26 81 69c0 44 -29 66 -85 66h-36v57h29c50 0 78 21 78 59c0 35 -29 60 -72 60c-46 0 -76 -27 -83 -70l-69 11c11 75 70 122 152 122s142 -48 142 -116
c0 -35 -15 -61 -51 -87v-1c43 -22 64 -57 64 -107c0 -76 -60 -127 -150 -127zM774 -9c-103 0 -168 49 -168 127c0 52 29 91 76 114v1c-32 17 -53 46 -53 82c0 66 59 114 145 114c85 0 144 -48 144 -114c0 -36 -20 -65 -52 -82v-1c47 -23 75 -62 75 -114
c0 -78 -65 -127 -167 -127zM774 253c49 0 80 24 80 59s-33 59 -80 59c-46 0 -78 -24 -78 -59s30 -59 78 -59zM774 54c60 0 97 28 97 73c0 42 -40 72 -97 72c-58 0 -98 -30 -98 -72c0 -45 38 -73 98 -73z" />
    <glyph glyph-name="fiveeighths" unicode="&#x215d;" horiz-adv-x="990" 
d="M763 740l-486 -810l-58 33l488 812zM196 271c-85 0 -150 46 -166 117l66 21c11 -47 46 -75 100 -75c53 0 92 37 92 86c0 51 -37 85 -92 85c-36 0 -69 -15 -93 -41l-64 18l41 218h236v-64h-183l-18 -98l1 -1c26 17 55 25 88 25c91 0 154 -58 154 -141
c0 -87 -68 -150 -162 -150zM792 -9c-103 0 -168 49 -168 127c0 52 29 91 76 114v1c-32 17 -53 46 -53 82c0 66 59 114 145 114c85 0 144 -48 144 -114c0 -36 -20 -65 -52 -82v-1c47 -23 75 -62 75 -114c0 -78 -65 -127 -167 -127zM792 253c49 0 80 24 80 59s-33 59 -80 59
c-46 0 -78 -24 -78 -59s30 -59 78 -59zM792 54c60 0 97 28 97 73c0 42 -40 72 -97 72c-58 0 -98 -30 -98 -72c0 -45 38 -73 98 -73z" />
    <glyph glyph-name="seveneighths" unicode="&#x215e;" horiz-adv-x="878" 
d="M651 740l-486 -810l-58 33l488 812zM130 280h-79l171 355v1h-222v64h301v-59zM680 -9c-103 0 -168 49 -168 127c0 52 29 91 76 114v1c-32 17 -53 46 -53 82c0 66 59 114 145 114c85 0 144 -48 144 -114c0 -36 -20 -65 -52 -82v-1c47 -23 75 -62 75 -114
c0 -78 -65 -127 -167 -127zM680 253c49 0 80 24 80 59s-33 59 -80 59c-46 0 -78 -24 -78 -59s30 -59 78 -59zM680 54c60 0 97 28 97 73c0 42 -40 72 -97 72c-58 0 -98 -30 -98 -72c0 -45 38 -73 98 -73z" />
    <glyph glyph-name="period" unicode="." horiz-adv-x="301" 
d="M210 0h-119v116h119v-116z" />
    <glyph glyph-name="comma" unicode="," horiz-adv-x="303" 
d="M96 -104v44c33 6 47 23 47 60h-52v113h122v-98c0 -73 -41 -115 -117 -119z" />
    <glyph glyph-name="colon" unicode=":" horiz-adv-x="301" 
d="M210 340h-119v116h119v-116zM210 0h-119v116h119v-116z" />
    <glyph glyph-name="semicolon" unicode=";" horiz-adv-x="303" 
d="M212 340h-119v116h119v-116zM96 -104v44c33 6 47 23 47 60h-52v113h122v-98c0 -73 -41 -115 -117 -119z" />
    <glyph glyph-name="ellipsis" unicode="&#x2026;" horiz-adv-x="765" 
d="M210 0h-119v116h119v-116zM442 0h-119v116h119v-116zM675 0h-119v116h119v-116z" />
    <glyph glyph-name="exclam" unicode="!" horiz-adv-x="390" 
d="M237 206h-83v494h83v-494zM255 0h-119v116h119v-116z" />
    <glyph glyph-name="exclamdown" unicode="&#xa1;" horiz-adv-x="310" 
d="M96 414v116h119v-116h-119zM114 -170v494h83v-494h-83z" />
    <glyph glyph-name="question" unicode="?" horiz-adv-x="594" 
d="M306 190h-80v64c0 61 30 104 98 144c75 44 105 80 105 135c0 63 -53 104 -119 104c-101 0 -151 -58 -157 -150l-82 4c3 129 93 224 239 224c108 0 203 -74 203 -182c0 -86 -48 -138 -142 -192c-50 -30 -65 -51 -65 -94v-57zM328 0h-119v116h119v-116z" />
    <glyph glyph-name="questiondown" unicode="&#xbf;" horiz-adv-x="594" 
d="M266 530h119v-116h-119v116zM288 340h80v-64c0 -61 -30 -104 -98 -144c-75 -44 -105 -80 -105 -135c0 -63 53 -104 119 -104c101 0 151 58 158 150l81 -4c-3 -129 -93 -224 -239 -224c-108 0 -203 74 -203 182c0 86 48 138 142 193c50 29 65 51 65 93v57z" />
    <glyph glyph-name="periodcentered" unicode="&#xb7;" horiz-adv-x="241" 
d="M180 321h-119v117h119v-117z" />
    <glyph glyph-name="bullet" unicode="&#x2022;" horiz-adv-x="358" 
d="M179 291c-54 0 -88 38 -88 89s34 90 88 90s89 -39 89 -90c0 -52 -35 -89 -89 -89z" />
    <glyph glyph-name="asterisk" unicode="*" horiz-adv-x="489" 
d="M245 470l-106 -130l-49 44l93 111l-122 74l33 54l118 -68v144h65v-144l118 68l33 -54l-122 -74l93 -111l-49 -44z" />
    <glyph glyph-name="numbersign" unicode="#" horiz-adv-x="786" 
d="M725 516l-12 -70h-153l-33 -187h153l-12 -71h-154l-33 -188h-78l33 188h-145l-33 -188h-77l33 188h-153l12 71h154l33 187h-154l12 70h154l33 184h77l-33 -184h145l33 184h78l-33 -184h153zM304 259h145l33 187h-145z" />
    <glyph glyph-name="slash" unicode="/" horiz-adv-x="445" 
d="M429 715l-358 -753l-55 23l357 755z" />
    <glyph glyph-name="backslash" unicode="\" horiz-adv-x="445" 
d="M429 -16l-56 -23l-357 753l55 25z" />
    <glyph glyph-name="exclamdown.case" horiz-adv-x="390" 
d="M136 584v116h119v-116h-119zM154 0v494h83v-494h-83z" />
    <glyph glyph-name="questiondown.case" horiz-adv-x="594" 
d="M266 700h119v-116h-119v116zM288 510h80v-64c0 -61 -30 -104 -98 -144c-75 -44 -105 -80 -105 -135c0 -62 53 -104 119 -104c101 0 151 58 158 150l81 -4c-3 -129 -93 -224 -239 -224c-108 0 -203 74 -203 182c0 86 48 138 142 193c50 29 65 51 65 93v57z" />
    <glyph glyph-name="parenleft" unicode="(" horiz-adv-x="366" 
d="M345 -153l-54 -44c-138 153 -200 306 -200 492s62 339 200 492l54 -44c-122 -146 -171 -276 -171 -448s49 -302 171 -448z" />
    <glyph glyph-name="parenright" unicode=")" horiz-adv-x="366" 
d="M74 -197l-53 44c122 146 171 276 171 448s-49 302 -171 448l53 44c139 -153 201 -306 201 -492s-62 -339 -201 -492z" />
    <glyph glyph-name="braceleft" unicode="{" horiz-adv-x="365" 
d="M345 -181h-71c-92 0 -132 43 -132 144v217c0 46 -13 59 -53 59h-28v92h28c40 0 53 12 53 59v197c0 100 40 144 132 144h71v-79h-57c-48 0 -66 -23 -66 -84v-190c0 -62 -35 -92 -73 -92v-2c38 0 73 -30 73 -93v-209c0 -61 18 -85 66 -85h57v-78z" />
    <glyph glyph-name="braceright" unicode="}" horiz-adv-x="365" 
d="M91 -181h-70v78h57c48 0 66 24 66 85v209c0 63 34 93 73 93v2c-39 0 -73 30 -73 92v190c0 61 -18 84 -66 84h-57v79h70c92 0 133 -44 133 -144v-197c0 -47 13 -59 53 -59h28v-92h-28c-40 0 -53 -13 -53 -59v-217c0 -101 -41 -144 -133 -144z" />
    <glyph glyph-name="bracketleft" unicode="[" horiz-adv-x="309" 
d="M288 -181h-202v912h202v-74h-123v-764h123v-74z" />
    <glyph glyph-name="bracketright" unicode="]" horiz-adv-x="309" 
d="M224 731v-912h-203v74h123v764h-123v74h203z" />
    <glyph glyph-name="parenleft.case" horiz-adv-x="366" 
d="M345 -103l-54 -44c-138 153 -200 306 -200 492s62 339 200 492l54 -44c-122 -146 -171 -276 -171 -448s49 -302 171 -448z" />
    <glyph glyph-name="parenright.case" horiz-adv-x="366" 
d="M74 -147l-53 44c122 146 171 276 171 448s-49 302 -171 448l53 44c139 -153 201 -306 201 -492s-62 -339 -201 -492z" />
    <glyph glyph-name="braceleft.case" horiz-adv-x="365" 
d="M345 -131h-71c-92 0 -132 43 -132 144v217c0 46 -13 59 -53 59h-28v92h28c40 0 53 12 53 59v197c0 100 40 144 132 144h71v-79h-57c-48 0 -66 -23 -66 -84v-190c0 -62 -35 -92 -73 -92v-2c38 0 73 -30 73 -93v-209c0 -61 18 -85 66 -85h57v-78z" />
    <glyph glyph-name="braceright.case" horiz-adv-x="365" 
d="M91 -131h-70v78h57c48 0 66 24 66 85v209c0 63 34 93 73 93v2c-39 0 -73 30 -73 92v190c0 61 -18 84 -66 84h-57v79h70c92 0 133 -44 133 -144v-197c0 -47 13 -59 53 -59h28v-92h-28c-40 0 -53 -13 -53 -59v-217c0 -101 -41 -144 -133 -144z" />
    <glyph glyph-name="bracketleft.case" horiz-adv-x="309" 
d="M288 -131h-202v912h202v-74h-123v-764h123v-74z" />
    <glyph glyph-name="bracketright.case" horiz-adv-x="309" 
d="M224 781v-912h-203v74h123v764h-123v74h203z" />
    <glyph glyph-name="hyphen" unicode="-" horiz-adv-x="363" 
d="M312 259h-261v75h261v-75z" />
    <glyph glyph-name="uni00AD" unicode="&#xad;" horiz-adv-x="363" 
d="M312 259h-261v75h261v-75z" />
    <glyph glyph-name="endash" unicode="&#x2013;" horiz-adv-x="555" 
d="M504 259h-453v75h453v-75z" />
    <glyph glyph-name="emdash" unicode="&#x2014;" horiz-adv-x="840" 
d="M789 259h-738v75h738v-75z" />
    <glyph glyph-name="underscore" unicode="_" horiz-adv-x="603" 
d="M552 -149h-501v69h501v-69z" />
    <glyph glyph-name="hyphen.case" horiz-adv-x="363" 
d="M312 324h-261v75h261v-75z" />
    <glyph glyph-name="uni00AD.case" horiz-adv-x="363" 
d="M312 324h-261v75h261v-75z" />
    <glyph glyph-name="endash.case" horiz-adv-x="555" 
d="M504 324h-453v75h453v-75z" />
    <glyph glyph-name="emdash.case" horiz-adv-x="840" 
d="M789 324h-738v75h738v-75z" />
    <glyph glyph-name="quotesinglbase" unicode="&#x201a;" horiz-adv-x="303" 
d="M96 -104v44c33 6 47 23 47 60h-52v113h122v-98c0 -73 -41 -115 -117 -119z" />
    <glyph glyph-name="quotedblbase" unicode="&#x201e;" horiz-adv-x="470" 
d="M96 -104v44c33 6 47 23 47 60h-52v113h122v-98c0 -73 -41 -115 -117 -119zM262 -104v44c34 6 48 23 48 60h-53v113h123v-98c0 -73 -41 -115 -118 -119z" />
    <glyph glyph-name="quotedblleft" unicode="&#x201c;" horiz-adv-x="470" 
d="M208 710v-44c-34 -6 -47 -24 -47 -60h52v-114h-122v99c0 73 40 114 117 119zM375 710v-44c-34 -6 -48 -24 -48 -60h53v-114h-123v99c0 73 41 114 118 119z" />
    <glyph glyph-name="quotedblright" unicode="&#x201d;" horiz-adv-x="470" 
d="M96 482v45c33 6 47 23 47 60h-52v113h122v-98c0 -73 -41 -115 -117 -120zM262 482v45c34 6 48 23 48 60h-53v113h123v-98c0 -73 -41 -115 -118 -120z" />
    <glyph glyph-name="quoteleft" unicode="&#x2018;" horiz-adv-x="263" 
d="M188 710v-44c-34 -6 -47 -24 -47 -60h52v-114h-122v99c0 73 40 114 117 119z" />
    <glyph glyph-name="quoteright" unicode="&#x2019;" horiz-adv-x="263" 
d="M76 482v45c33 6 47 23 47 60h-52v113h122v-98c0 -73 -41 -115 -117 -120z" />
    <glyph glyph-name="guillemotleft" unicode="&#xab;" horiz-adv-x="479" 
d="M262 95h-81l-110 186l110 186h81l-113 -186zM419 95h-81l-110 186l110 186h81l-113 -186z" />
    <glyph glyph-name="guillemotright" unicode="&#xbb;" horiz-adv-x="479" 
d="M252 281l-110 -186h-81l113 186l-113 186h81zM409 281l-110 -186h-81l113 186l-113 186h81z" />
    <glyph glyph-name="guilsinglleft" unicode="&#x2039;" horiz-adv-x="322" 
d="M262 95h-81l-110 186l110 186h81l-113 -186z" />
    <glyph glyph-name="guilsinglright" unicode="&#x203a;" horiz-adv-x="322" 
d="M252 281l-110 -186h-81l113 186l-113 186h81z" />
    <glyph glyph-name="quotedbl" unicode="&#x22;" horiz-adv-x="387" 
d="M164 477h-73v223h73v-223zM296 477h-73v223h73v-223z" />
    <glyph glyph-name="quotesingle" unicode="'" horiz-adv-x="255" 
d="M164 477h-73v223h73v-223z" />
    <glyph glyph-name="guillemotleft.case" horiz-adv-x="479" 
d="M262 145h-81l-110 186l110 186h81l-113 -186zM419 145h-81l-110 186l110 186h81l-113 -186z" />
    <glyph glyph-name="guillemotright.case" horiz-adv-x="479" 
d="M252 331l-110 -186h-81l113 186l-113 186h81zM409 331l-110 -186h-81l113 186l-113 186h81z" />
    <glyph glyph-name="guilsinglleft.case" horiz-adv-x="322" 
d="M262 145h-81l-110 186l110 186h81l-113 -186z" />
    <glyph glyph-name="guilsinglright.case" horiz-adv-x="322" 
d="M252 331l-110 -186h-81l113 186l-113 186h81z" />
    <glyph glyph-name="uni205F" unicode="&#x205f;" horiz-adv-x="222" 
 />
    <glyph glyph-name="uni2001" unicode="&#x2001;" horiz-adv-x="1000" 
 />
    <glyph glyph-name="uni2003" unicode="&#x2003;" horiz-adv-x="1000" 
 />
    <glyph glyph-name="uni2000" unicode="&#x2000;" horiz-adv-x="500" 
 />
    <glyph glyph-name="uni2002" unicode="&#x2002;" horiz-adv-x="500" 
 />
    <glyph glyph-name="uni2007" unicode="&#x2007;" 
 />
    <glyph glyph-name="uni2005" unicode="&#x2005;" horiz-adv-x="250" 
 />
    <glyph glyph-name="uni200A" unicode="&#x200a;" horiz-adv-x="70" 
 />
    <glyph glyph-name="uni202F" unicode="&#x202f;" horiz-adv-x="54" 
 />
    <glyph glyph-name="uni2008" unicode="&#x2008;" horiz-adv-x="301" 
 />
    <glyph glyph-name="uni2006" unicode="&#x2006;" horiz-adv-x="166" 
 />
    <glyph glyph-name="uni00A0" unicode="&#xa0;" horiz-adv-x="270" 
 />
    <glyph glyph-name="uni2009" unicode="&#x2009;" horiz-adv-x="125" 
 />
    <glyph glyph-name="uni2004" unicode="&#x2004;" horiz-adv-x="333" 
 />
    <glyph glyph-name="uni200B" unicode="&#x200b;" horiz-adv-x="0" 
 />
    <glyph glyph-name="uniFEFF" unicode="&#xfeff;" horiz-adv-x="0" 
 />
    <glyph glyph-name="uni0E3F" unicode="&#xe3f;" 
d="M595 207c0 -135 -85 -207 -245 -207v-110h-49v110h-205v700h205v101h49v-101h15c123 0 204 -72 204 -181c0 -68 -32 -121 -83 -144v-2c66 -23 109 -85 109 -166zM301 622h-123v-219h123v219zM486 515c0 71 -46 107 -136 107v-219c91 0 136 37 136 112zM178 330v-252h123
v252h-123zM350 330v-252c113 3 162 42 162 129c0 85 -46 121 -162 123z" />
    <glyph glyph-name="uni20BF" unicode="&#x20bf;" 
d="M595 207c0 -123 -71 -194 -205 -205v-112h-49v110h-51v-110h-49v110h-145v700h145v101h49v-101h51v101h49v-102c109 -9 179 -79 179 -180c0 -68 -32 -121 -83 -144v-2c66 -23 109 -85 109 -166zM350 622h-172v-219h172c91 0 136 37 136 112c0 71 -46 107 -136 107z
M178 78h160c122 0 174 39 174 129c0 87 -49 123 -172 123h-162v-252z" />
    <glyph glyph-name="cent" unicode="&#xa2;" horiz-adv-x="626" 
d="M349 473v-416c80 9 137 57 152 136l75 -15c-21 -110 -109 -183 -227 -192v-96h-49v96c-145 11 -244 121 -244 279s99 268 244 279v87h49v-87c118 -9 206 -82 227 -192l-75 -15c-15 79 -72 127 -152 136zM132 265c0 -117 67 -197 168 -208v416
c-101 -11 -168 -91 -168 -208z" />
    <glyph glyph-name="currency" unicode="&#xa4;" horiz-adv-x="599" 
d="M533 330c0 -57 -17 -109 -46 -150l67 -66l-39 -40l-66 65c-40 -33 -92 -53 -150 -53s-109 19 -149 52l-65 -64l-39 40l65 66c-29 41 -46 92 -46 150c0 57 16 108 45 149l-64 65l39 39l62 -62c40 34 93 54 152 54s112 -21 152 -56l64 64l39 -39l-65 -66
c28 -41 44 -92 44 -148zM300 161c90 0 147 66 147 167c0 104 -57 172 -147 172c-91 0 -149 -67 -149 -172c0 -102 57 -167 149 -167z" />
    <glyph glyph-name="dollar" unicode="$" horiz-adv-x="655" 
d="M610 177c0 -112 -103 -192 -259 -192v-95h-49v97c-146 14 -243 95 -257 245l82 13c16 -114 75 -169 175 -181v272c-116 33 -232 72 -232 192c0 109 99 184 232 187v86h49v-88c129 -14 214 -93 233 -202l-82 -16c-19 79 -67 129 -151 141v-235c124 -36 259 -80 259 -224z
M150 530c0 -62 68 -90 152 -115v224c-88 -2 -152 -43 -152 -109zM351 321v-260c112 0 178 45 178 115c0 84 -83 117 -178 145z" />
    <glyph glyph-name="dong" unicode="&#x20ab;" horiz-adv-x="553" 
d="M478 665h65v-60h-65v-476h-76v43h-2c-27 -33 -81 -55 -134 -55c-124 0 -210 88 -210 214c0 127 86 215 210 215c51 0 104 -21 132 -49h2v108h-139v60h139v65h78v-65zM400 298v67c0 61 -59 113 -130 113c-82 0 -136 -58 -136 -147c0 -88 54 -146 136 -146
c70 0 130 52 130 113zM478 0h-414v63h414v-63z" />
    <glyph glyph-name="Euro" unicode="&#x20ac;" horiz-adv-x="789" 
d="M656 258l83 -11c-17 -162 -128 -262 -297 -262c-161 0 -276 96 -312 253h-105v73h94c-1 13 -1 26 -1 39c0 11 0 22 1 33h-94v73h104c36 159 152 259 313 259c158 0 271 -95 294 -244l-79 -13c-23 117 -98 181 -215 181s-200 -68 -230 -183h288v-73h-300
c-1 -11 -1 -22 -1 -33c0 -13 1 -26 2 -39h229v-73h-217c32 -112 113 -177 229 -177c123 0 198 69 214 197z" />
    <glyph glyph-name="florin" unicode="&#x192;" horiz-adv-x="427" 
d="M393 641h-77c-38 0 -54 -13 -61 -53l-11 -58h129v-73h-141l-78 -444l-14 -78c-13 -72 -58 -109 -135 -109h-56v73h55c39 0 54 13 61 53l89 505h-115v73h127l14 76c13 71 59 108 135 108h78v-73z" />
    <glyph glyph-name="uni20B4" unicode="&#x20b4;" horiz-adv-x="609" 
d="M516 461h38v-73h-499v73h363c25 20 37 43 37 77c0 57 -56 99 -138 99c-85 0 -140 -39 -185 -126l-76 41c49 93 134 163 261 163c120 0 222 -70 222 -177c0 -30 -8 -55 -23 -77zM91 243h-36v73h499v-73h-362c-28 -21 -42 -45 -42 -81c0 -57 56 -99 138 -99
c85 0 140 39 185 126l76 -41c-49 -93 -134 -163 -261 -163c-120 0 -222 70 -222 177c0 32 9 58 25 81z" />
    <glyph glyph-name="uni20BA" unicode="&#x20ba;" horiz-adv-x="550" 
d="M437 365h83c0 -219 -118 -365 -295 -365h-83v333l-77 -28l-25 64l102 37v78l-77 -28l-25 64l102 37v143h83v-112l164 60l23 -64l-187 -69v-78l164 60l23 -65l-187 -68v-286c131 0 212 110 212 287z" />
    <glyph glyph-name="uni20BC" unicode="&#x20bc;" horiz-adv-x="748" 
d="M411 700v-87c148 -14 237 -111 237 -261v-352h-83v348c0 105 -57 173 -154 186v-534h-73v535c-98 -13 -155 -82 -155 -189v-346h-82v352c0 151 89 248 237 261v87h73z" />
    <glyph glyph-name="uni20BD" unicode="&#x20bd;" horiz-adv-x="701" 
d="M411 270h-187v-80h198v-73h-198v-117h-83v117h-101v73h101v80h-101v73h101v357h270c148 0 234 -83 234 -216c0 -134 -86 -214 -234 -214zM406 622h-182v-274h182c106 0 156 43 156 136s-51 138 -156 138z" />
    <glyph glyph-name="uni20A8" unicode="&#x20a8;" horiz-adv-x="611" 
d="M571 700v-70h-117v-2c29 -26 47 -61 54 -98h63v-74h-62c-13 -90 -75 -150 -175 -166v-2l155 -288h-96l-149 285h-178v77h204c89 0 141 33 154 94h-358v74h359c-14 60 -65 92 -155 92h-204v78h505z" />
    <glyph glyph-name="sterling" unicode="&#xa3;" horiz-adv-x="604" 
d="M262 80v-2h288v-78h-480v78h57c68 0 104 52 104 120c0 42 -17 77 -40 110h-121v73h73c-29 40 -55 86 -55 144c0 114 92 190 232 190c145 0 242 -82 249 -211l-82 -8c-8 95 -66 141 -166 141c-92 0 -147 -43 -147 -112c0 -56 30 -101 60 -144h227v-73h-183
c18 -33 30 -67 30 -110c0 -44 -15 -88 -46 -118z" />
    <glyph glyph-name="uni20B8" unicode="&#x20b8;" horiz-adv-x="629" 
d="M574 622h-519v78h519v-78zM356 0h-83v472h-218v78h519v-78h-218v-472z" />
    <glyph glyph-name="uni20AE" unicode="&#x20ae;" horiz-adv-x="629" 
d="M574 700v-78h-218v-177l121 44l23 -65l-144 -53v-78l121 44l23 -64l-144 -53v-220h-83v189l-120 -44l-25 65l145 53v78l-120 -44l-25 64l145 53v208h-218v78h519z" />
    <glyph glyph-name="uni20A9" unicode="&#x20a9;" horiz-adv-x="911" 
d="M891 496v-66h-86l-15 -82h101v-67h-113l-53 -281h-91l-87 281h-183l-87 -281h-91l-53 281h-113v67h101l-15 82h-86v66h73l-38 204h77l38 -204h187l63 204h72l62 -204h187l38 204h77l-38 -204h73zM457 574h-2l-24 -78h50zM337 430h-155l15 -82h115zM410 430l-25 -82h142
l-26 82h-91zM600 348h114l15 82h-154zM239 119h2l50 162h-82zM670 119h2l30 162h-82z" />
    <glyph glyph-name="yen" unicode="&#xa5;" horiz-adv-x="593" 
d="M487 700h96l-207 -345h163v-73h-201v-71h201v-74h-201v-137h-83v137h-210v74h210v71h-210v73h172l-207 345h96l189 -327h2z" />
    <glyph glyph-name="uni0E3F.tf" 
d="M481 375v-2c65 -23 109 -85 109 -166c0 -135 -85 -207 -247 -207h-4v-110h-49v110h-200v700h200v101h49v-101h21c123 0 204 -72 204 -181c0 -68 -32 -121 -83 -144zM290 622h-117v-219h117v219zM344 622h-5v-219h6c91 0 136 37 136 112c0 71 -47 107 -137 107zM173 330
v-252h117v252h-117zM339 330v-252c117 1 168 41 168 129c0 86 -49 122 -168 123z" />
    <glyph glyph-name="uni20BF.tf" 
d="M590 207c0 -122 -69 -192 -202 -205v-112h-49v110h-51v-110h-49v110h-143v700h143v101h49v-101h51v101h49v-102c107 -10 176 -80 176 -180c0 -68 -32 -121 -83 -144v-2c65 -23 109 -85 109 -166zM344 622h-166v-219h167c91 0 136 37 136 112c0 71 -47 107 -137 107z
M178 78h155c121 0 174 39 174 129c0 87 -50 123 -172 123h-157v-252z" />
    <glyph glyph-name="cent.tf" 
d="M358 473v-416c80 9 137 57 152 136l75 -15c-21 -110 -109 -183 -227 -192v-96h-49v96c-145 11 -244 121 -244 279s99 268 244 279v87h49v-87c118 -9 206 -82 227 -192l-75 -15c-15 79 -72 127 -152 136zM141 265c0 -117 67 -197 168 -208v416
c-101 -11 -168 -91 -168 -208z" />
    <glyph glyph-name="currency.tf" 
d="M558 330c0 -57 -17 -109 -46 -150l67 -66l-40 -40l-65 65c-40 -33 -92 -53 -150 -53s-110 19 -149 53l-65 -65l-40 40l66 66c-29 41 -46 92 -46 150c0 57 16 108 45 149l-65 65l40 39l62 -63c40 35 93 55 152 55s112 -20 152 -55l63 63l40 -39l-65 -66
c28 -41 44 -92 44 -148zM325 161c90 0 147 66 147 167c0 104 -57 172 -147 172c-91 0 -149 -67 -149 -172c0 -102 57 -167 149 -167z" />
    <glyph glyph-name="dollar.tf" 
d="M607 177c0 -112 -101 -191 -258 -192v-95h-49v97c-147 14 -243 95 -257 245l81 13c17 -114 75 -169 176 -181v272c-116 33 -232 72 -232 192c0 109 99 184 232 187v86h49v-88c129 -14 213 -93 233 -202l-82 -16c-20 78 -68 129 -151 141v-235c123 -36 258 -80 258 -224z
M148 530c0 -62 68 -90 152 -115v224c-89 -2 -152 -42 -152 -109zM349 321v-260c112 0 178 45 178 115c0 84 -83 117 -178 145z" />
    <glyph glyph-name="dong.tf" 
d="M527 665h65v-60h-65v-476h-75v43h-2c-28 -33 -82 -55 -135 -55c-124 0 -210 88 -210 214c0 127 86 215 210 215c51 0 105 -21 132 -49h2v108h-139v60h139v65h78v-65zM449 298v67c0 61 -59 113 -130 113c-82 0 -136 -58 -136 -147c0 -88 54 -146 136 -146
c70 0 130 52 130 113zM527 0h-414v63h414v-63z" />
    <glyph glyph-name="Euro.tf" 
d="M532 259l83 -11c-15 -158 -114 -263 -250 -263c-134 0 -233 96 -264 253h-86v73h76c-1 13 -1 26 -1 39c0 11 0 22 1 33h-76v73h85c31 158 132 259 265 259c130 0 228 -97 247 -244l-82 -14c-19 115 -78 180 -165 180c-90 0 -159 -68 -186 -181h237v-73h-247
c-1 -11 -1 -22 -1 -33c0 -13 0 -26 1 -39h176v-73h-165c27 -111 96 -175 185 -175c91 0 151 70 167 196z" />
    <glyph glyph-name="florin.tf" 
d="M547 641h-77c-38 0 -54 -13 -61 -53l-11 -58h129v-73h-140l-79 -444l-14 -78c-13 -72 -58 -109 -135 -109h-56v73h55c39 0 54 13 61 53l11 62l79 443h-116v73h127l14 76c13 71 59 108 135 108h78v-73z" />
    </font>
</defs>
</svg>
